Loading...
Error

Гнев человеческий / Wrath of Man (Гай Ричи / Guy Ritchie) [2021, Великобритания, США, Боевик, триллер, BDRemux 1080p] Dub + DVO + 3x MVO + VO + AVO + Sub (Rus, Ukr)

Статистика раздачи
Размер:  37.59 GB   |    Зарегистрирован:  1 год 2 месяца   |    Скачан:  4 раза

Полного источника не было: 1 день 20 часов

Сидов:  0  |  0 KB/s  ]   Личеров:  0  |  0 KB/s  ]

* - сиды/пиры с внешних источников

   
 
Автор Сообщение

Renesans Пол:Муж

23-Июл-2021 07:17

Гнев человеческий / Wrath of Man
-
Страна: Великобритания, США
Жанр: Боевик, триллер
Год выпуска: 2021
Продолжительность: 01:58:56
Перевод: Профессиональный (дублированный) | (iTunes)
Перевод: Профессиональный (двухголосый закадровый) | (DVO KvK)
Перевод: Профессиональный (многоголосый закадровый) | (MVO Jaskier)
Перевод: Любительский (многоголосый закадровый) | (MVO HDRezka Studio Censored)
Перевод: Любительский (многоголосый закадровый) | (MVO HDRezka Studio Uncensored)
Перевод: Одноголосый закадровый | (VO Яроцкий)
Перевод: Авторский (одноголосый закадровый) | (AVO Пучков)
Cубтитры: Русские (Forced, Fullx2), Украинскиe (Forced), Английские (Full, SDH)
Оригинальная аудиодорожка: Английский
Режиссёр: Гай Ричи / Guy Ritchie

В ролях: Джейсон Стэйтем, Холт Маккэллани, Джеффри Донован, Джош Хартнетт, Лас Алонсо, Алекс Фернс, Рауль Кастильо, Деобиа Опарей, Скотт Иствуд, Нив Алгар

Описание: Эйч — загадочный и холодный на вид джентльмен, но внутри него пылает жажда мести. Преследуя свои мотивы, он внедряется в инкассаторскую компанию, чтобы выйти на соучастников серии многомиллионных ограблений, потрясших Лос-Анджелес. В этой запутанной игре у каждого своя роль, но под подозрением оказываются все. Виновных же обязательно постигнет гнев человеческий.


Тип релиза: BDRemux 1080p
Контейнер: MKV
Видео: AVC/H.264, 1920x1080, 37900 Kbps, 23.976 fps
Аудио 1: Русский | AC-3, 6 ch, 384 Kbps, 48.0 kHz Dub iTunes
Аудио 2: Русский | AC-3, 6 ch, 448 Kbps, 48.0 kHz DVO KvK, кубик в кубе Uncensored
Аудио 3: Русский | AC-3, 6 ch, 448 Kbps, 48.0 kHz MVO Jaskier Uncensored
Аудио 4: Русский | AC-3, 6 ch, 448 Kbps, 48.0 kHz MVO HDRezka Studio Censored
Аудио 5: Русский | AC-3, 6 ch, 448 Kbps, 48.0 kHz MVO HDRezka Studio Uncensored
Аудио 6: Русский | AC-3, 6 ch, 448 Kbps, 48.0 kHz VO Яроцкий Uncensored
Аудио 7: Русский | AC-3, 6 ch, 640 Kbps, 48.0 kHz AVO Пучков Uncensored
Аудио 8: Украинский | AC-3, 6 ch, 384 Kbps, 48.0 kHz
Аудио 9: Английский | DTS-HD MA, 6 ch, 3673 Kbps, 48.0 kHz, 24-bit (DTS Core: 5.1 / 48 kHz / 1509 kbps / 24-bit)

Формат субтитров: softsub (SRT)

Код:

General
Unique ID                                : 250957153704603587561270736394562478832 (0xBCCC96F716F250611EADE3F2C7AEA2F0)
Complete name                            : /Users/imac/Download-BIGBOY/Wrath.of.Man.2021.BDRemux.1080p.pk.mkv
Format                                   : Matroska
Format version                           : Version 4
File size                                : 37.6 GiB
Duration                                 : 1 h 58 min
Overall bit rate mode                    : Variable
Overall bit rate                         : 45.2 Mb/s
Movie name                               : Wrath of Man 2021 BDRemux 1080p pk
Encoded date                             : UTC 2021-07-15 14:11:14
Writing application                      : mkvmerge v53.0.0 ('Fool's Gold') 64-bit
Writing library                          : libebml v1.4.1 + libmatroska v1.6.2

Video
ID                                       : 1
Format                                   : AVC
Format/Info                              : Advanced Video Codec
Format profile                           : [email protected]
Format settings                          : CABAC / 4 Ref Frames
Format settings, CABAC                   : Yes
Format settings, Reference frames        : 4 frames
Format settings, GOP                     : M=3, N=12
Codec ID                                 : V_MPEG4/ISO/AVC
Duration                                 : 1 h 58 min
Bit rate mode                            : Variable
Bit rate                                 : 37.9 Mb/s
Maximum bit rate                         : 39.5 Mb/s
Width                                    : 1 920 pixels
Height                                   : 1 080 pixels
Display aspect ratio                     : 16:9
Frame rate mode                          : Constant
Frame rate                               : 23.976 (24000/1001) FPS
Color space                              : YUV
Chroma subsampling                       : 4:2:0
Bit depth                                : 8 bits
Scan type                                : Progressive
Bits/(Pixel*Frame)                       : 0.763
Stream size                              : 31.5 GiB (84%)
Language                                 : English
Default                                  : Yes
Forced                                   : No

Audio #1
ID                                       : 2
Format                                   : AC-3
Format/Info                              : Audio Coding 3
Commercial name                          : Dolby Digital
Codec ID                                 : A_AC3
Duration                                 : 1 h 58 min
Bit rate mode                            : Constant
Bit rate                                 : 384 kb/s
Channel(s)                               : 6 channels
Channel layout                           : L R C LFE Ls Rs
Sampling rate                            : 48.0 kHz
Frame rate                               : 31.250 FPS (1536 SPF)
Compression mode                         : Lossy
Stream size                              : 327 MiB (1%)
Title                                    : Russian Dub iTunes
Language                                 : Russian
Service kind                             : Complete Main
Default                                  : Yes
Forced                                   : No

Audio #2
ID                                       : 3
Format                                   : AC-3
Format/Info                              : Audio Coding 3
Commercial name                          : Dolby Digital
Codec ID                                 : A_AC3
Duration                                 : 1 h 58 min
Bit rate mode                            : Constant
Bit rate                                 : 448 kb/s
Channel(s)                               : 6 channels
Channel layout                           : L R C LFE Ls Rs
Sampling rate                            : 48.0 kHz
Frame rate                               : 31.250 FPS (1536 SPF)
Compression mode                         : Lossy
Stream size                              : 381 MiB (1%)
Title                                    : Russian DVO KvK
Language                                 : Russian
Service kind                             : Complete Main
Default                                  : No
Forced                                   : No

Audio #3
ID                                       : 4
Format                                   : AC-3
Format/Info                              : Audio Coding 3
Commercial name                          : Dolby Digital
Codec ID                                 : A_AC3
Duration                                 : 1 h 58 min
Bit rate mode                            : Constant
Bit rate                                 : 448 kb/s
Channel(s)                               : 6 channels
Channel layout                           : L R C LFE Ls Rs
Sampling rate                            : 48.0 kHz
Frame rate                               : 31.250 FPS (1536 SPF)
Compression mode                         : Lossy
Stream size                              : 381 MiB (1%)
Title                                    : Russian MVO Jaskier
Language                                 : Russian
Service kind                             : Complete Main
Default                                  : No
Forced                                   : No

Audio #4
ID                                       : 5
Format                                   : AC-3
Format/Info                              : Audio Coding 3
Commercial name                          : Dolby Digital
Codec ID                                 : A_AC3
Duration                                 : 1 h 58 min
Bit rate mode                            : Constant
Bit rate                                 : 448 kb/s
Channel(s)                               : 6 channels
Channel layout                           : L R C LFE Ls Rs
Sampling rate                            : 48.0 kHz
Frame rate                               : 31.250 FPS (1536 SPF)
Compression mode                         : Lossy
Stream size                              : 381 MiB (1%)
Title                                    : Russian MVO HDRezka Studio censored
Language                                 : Russian
Service kind                             : Complete Main
Default                                  : No
Forced                                   : No

Audio #5
ID                                       : 6
Format                                   : AC-3
Format/Info                              : Audio Coding 3
Commercial name                          : Dolby Digital
Codec ID                                 : A_AC3
Duration                                 : 1 h 58 min
Bit rate mode                            : Constant
Bit rate                                 : 448 kb/s
Channel(s)                               : 6 channels
Channel layout                           : L R C LFE Ls Rs
Sampling rate                            : 48.0 kHz
Frame rate                               : 31.250 FPS (1536 SPF)
Compression mode                         : Lossy
Stream size                              : 381 MiB (1%)
Title                                    : Russian MVO HDRezka Studio uncensored
Language                                 : Russian
Service kind                             : Complete Main
Default                                  : No
Forced                                   : No

Audio #6
ID                                       : 7
Format                                   : AC-3
Format/Info                              : Audio Coding 3
Commercial name                          : Dolby Digital
Codec ID                                 : A_AC3
Duration                                 : 1 h 58 min
Bit rate mode                            : Constant
Bit rate                                 : 448 kb/s
Channel(s)                               : 6 channels
Channel layout                           : L R C LFE Ls Rs
Sampling rate                            : 48.0 kHz
Frame rate                               : 31.250 FPS (1536 SPF)
Compression mode                         : Lossy
Stream size                              : 381 MiB (1%)
Title                                    : Russian VO Яроцкий
Language                                 : Russian
Service kind                             : Complete Main
Default                                  : No
Forced                                   : No

Audio #7
ID                                       : 8
Format                                   : AC-3
Format/Info                              : Audio Coding 3
Commercial name                          : Dolby Digital
Codec ID                                 : A_AC3
Duration                                 : 1 h 58 min
Bit rate mode                            : Constant
Bit rate                                 : 640 kb/s
Channel(s)                               : 6 channels
Channel layout                           : L R C LFE Ls Rs
Sampling rate                            : 48.0 kHz
Frame rate                               : 31.250 FPS (1536 SPF)
Compression mode                         : Lossy
Stream size                              : 544 MiB (1%)
Title                                    : Russian AVO Пучков
Language                                 : Russian
Service kind                             : Complete Main
Default                                  : No
Forced                                   : No

Audio #8
ID                                       : 9
Format                                   : AC-3
Format/Info                              : Audio Coding 3
Commercial name                          : Dolby Digital
Codec ID                                 : A_AC3
Duration                                 : 1 h 58 min
Bit rate mode                            : Constant
Bit rate                                 : 384 kb/s
Channel(s)                               : 6 channels
Channel layout                           : L R C LFE Ls Rs
Sampling rate                            : 48.0 kHz
Frame rate                               : 31.250 FPS (1536 SPF)
Compression mode                         : Lossy
Stream size                              : 327 MiB (1%)
Title                                    : Ukrainian MVO HDRezka Studio
Language                                 : Ukrainian
Service kind                             : Complete Main
Default                                  : No
Forced                                   : No

Audio #9
ID                                       : 10
Format                                   : DTS XLL
Format/Info                              : Digital Theater Systems
Commercial name                          : DTS-HD Master Audio
Codec ID                                 : A_DTS
Duration                                 : 1 h 58 min
Bit rate mode                            : Variable
Bit rate                                 : 3 673 kb/s
Channel(s)                               : 6 channels
Channel layout                           : C L R Ls Rs LFE
Sampling rate                            : 48.0 kHz
Frame rate                               : 93.750 FPS (512 SPF)
Bit depth                                : 24 bits
Compression mode                         : Lossless
Stream size                              : 3.05 GiB (8%)
Title                                    : Original English
Language                                 : English
Default                                  : No
Forced                                   : No

Text #1
ID                                       : 11
Format                                   : UTF-8
Codec ID                                 : S_TEXT/UTF8
Codec ID/Info                            : UTF-8 Plain Text
Duration                                 : 1 h 11 min
Bit rate                                 : 0 b/s
Count of elements                        : 11
Stream size                              : 463 Bytes (0%)
Title                                    : Russian forced HDRezka Studio
Language                                 : Russian
Default                                  : No
Forced                                   : No

Text #2
ID                                       : 12
Format                                   : UTF-8
Codec ID                                 : S_TEXT/UTF8
Codec ID/Info                            : UTF-8 Plain Text
Duration                                 : 1 h 57 min
Bit rate                                 : 91 b/s
Count of elements                        : 1577
Stream size                              : 78.8 KiB (0%)
Title                                    : Russian full iTunes
Language                                 : Russian
Default                                  : No
Forced                                   : No

Text #3
ID                                       : 13
Format                                   : UTF-8
Codec ID                                 : S_TEXT/UTF8
Codec ID/Info                            : UTF-8 Plain Text
Duration                                 : 1 h 52 min
Bit rate                                 : 96 b/s
Count of elements                        : 1771
Stream size                              : 79.1 KiB (0%)
Title                                    : Russian full Enigma
Language                                 : Russian
Default                                  : No
Forced                                   : No

Text #4
ID                                       : 14
Format                                   : UTF-8
Codec ID                                 : S_TEXT/UTF8
Codec ID/Info                            : UTF-8 Plain Text
Duration                                 : 1 h 15 min
Bit rate                                 : 1 b/s
Count of elements                        : 17
Stream size                              : 584 Bytes (0%)
Title                                    : Ukrainian forced HDRezka Studio
Language                                 : Ukrainian
Default                                  : No
Forced                                   : No

Text #5
ID                                       : 15
Format                                   : UTF-8
Codec ID                                 : S_TEXT/UTF8
Codec ID/Info                            : UTF-8 Plain Text
Duration                                 : 1 h 50 min
Bit rate                                 : 63 b/s
Count of elements                        : 1792
Stream size                              : 51.5 KiB (0%)
Title                                    : English full
Language                                 : English
Default                                  : No
Forced                                   : No

Text #6
ID                                       : 16
Format                                   : UTF-8
Codec ID                                 : S_TEXT/UTF8
Codec ID/Info                            : UTF-8 Plain Text
Duration                                 : 1 h 50 min
Bit rate                                 : 70 b/s
Count of elements                        : 1990
Stream size                              : 56.8 KiB (0%)
Title                                    : English SDH
Language                                 : English
Default                                  : No
Forced                                   : No

Menu
00:00:00.000                             : en:Chapter 1
00:05:55.188                             : en:Chapter 2
00:13:08.120                             : en:Chapter 3
00:19:51.523                             : en:Chapter 4
00:29:30.435                             : en:Chapter 5
00:38:33.227                             : en:Chapter 6
00:47:33.684                             : en:Chapter 7
00:55:34.998                             : en:Chapter 8
01:02:41.299                             : en:Chapter 9
01:10:36.106                             : en:Chapter 10
01:19:03.530                             : en:Chapter 11
01:25:57.819                             : en:Chapter 12
01:34:15.358                             : en:Chapter 13
01:44:04.988                             : en:Chapter 14
01:53:03.985                             : en:Chapter 15
01:58:56.379                             : en:Chapter 16

Этот торрент недоступен для скачивания без регистрации, однако доступен по публичной magnet-ссылке (источники с публичных трекеров). Перед использованием ссылки прочтите, пожалуйста Пользовательское соглашение, а также как можно дольше оставайтесь на раздаче! Для того, чтобы скачать сам торрент-файл (который видит больше источников), а также для того, чтобы поблагодарить релизера, вам необходимо зарегистрироваться. Если регистрироваться лень - вы можете также попробовать скачать релиз по нашим партнерским ссылкам ниже. Кроме того, зарегистрированным пользователям не показывается всплывающая реклама при скачивании.

[underver.se].t214973.torrent
Трекер: Зарегистрирован   [ 23.07.2021 07:17 ]  
Статус: проверено (by Evgenii82 at 23.07.2021 09:38)
Поблагодарили: пока никто не поблагодарил...
Тип торрента: публичный - доступные источники с открытых трекеров: 
Размер: 37.59 GB (занимает 8.59 DVDR, для записи нужно 9 болванок DVDR/RW)
 
 

Яндекс.Метрика powered by Sphinx


В Н И М А Н И Е
Сайт не распространяет и не хранит электронные версии произведений, а лишь бесплатно и без коммерческой выгоды (не требуя взамен платы,
SMS и т.д.) предоставляет доступ к создаваемому пользователями каталогу ссылок на торрент-файлы, которые содержат только списки хеш-сумм.
Убедительная просьба с жалобами обращаться напрямую к пользователю, разместившему торрент файл.

Вверх