Loading...
Error

Рик и Морти / Rick and Morty / Сезон: 1 / Серии: 11 из 11 (Пит Мишелс, Брайан Ньютон, Джон Райс) [2013, США, Комедия, Фантастика, BDRemux, upscaled to 2160p] VO (Сыендук) + Sub (Rus)

Статистика раздачи
Размер:  61.92 GB   |    Зарегистрирован:  1 год 2 месяца   |    Скачан:  3 раза

Полного источника не было: 8 дней

Сидов:  0  |  0 KB/s  ]   Личеров:  0  |  0 KB/s  ]

* - сиды/пиры с внешних источников

   
 
Автор Сообщение

Renesans Пол:Муж

23-Июл-2021 10:16

Рик и Морти / Rick and Morty

Страна: США
Жанр: Комедия, Фантастика
Продолжительность серии: ~00:20:00
Год выпуска: 2013
Перевод: Одноголосый закадровый
Русские субтитры: есть

Режиссёр: Пит Мишелс, Брайан Ньютон, Джон Райс
Роли озвучивали: Джастин Ройланд, Крис Парнелл, Спенсер Грэммер, Сара Чок, Кари Уолгрен, Райан Ридли, Том Кенни, Морис ЛаМарш, Фил Хендри, Брэндон Джонсон

Описание: В центре сюжета — школьник по имени Морти и его дедушка Рик. Морти — самый обычный мальчик, который ничем не отличается от своих сверстников. А вот его дедуля занимается необычными научными исследованиями и зачастую полностью неадекватен. Он может в любое время дня и ночи схватить внука и отправиться вместе с ним в межпространственные приключения с помощью построенной из разного хлама летающей тарелки, которая способна перемещаться сквозь временной тоннель. Каждый раз эта парочка оказывается в самых неожиданных местах и самых нелепых ситуациях.

Список серий:
01. Пилот / Pilot
02. Пёс-газонокосильщик / Lawnmower Dog
03. Анатомический парк / Anatomy Park
04. М. Найт Шьямал-Инопланетяне! / M. Night Shaym-Aliens!
05. Мисикс и разрушение / Meeseeks and Destroy
06. Напиток Рика #9 / Rick Potion #9
07. Воспитание Газорпазорпа / Raising Gazorpazorp
08. Скандалы, Рик и расследования / Rixty Minutes
09. Надвигается нечто риканутое / Something Ricked This Way Comes
10. Близкие риконтакты риковой степени / Close Rick-counters of the Rick Kind
11. Риксованный бизнес / Ricksy Business

Доп. информация:
- Произведен upscaled до стандарта 4К UHD средствами AI c проработкой высокого качества.
- Видео в контейнере mkv перекодировано в стандарт h.265.



Качество: BDRemux (upscaled to 2160p)
Формат: MKV
Видео: 3840x2160, Frame Rate 23.976, h.265, ~30000 kbps
Аудио: Russian: 48 kHz/16-bit, DTS-HD MA 5.1, ~2200.00 kbps avg |Одноголосый закадровый, Сыендук|
Аудио 2: English: 48 kHz/24-bit, TrueHD 5.1, ~2200.00 kbps avg
Аудио 3: English: 48 kHz, AC3, 2/0 (L,R) ch, ~192.00 kbps avg |Creator and Animator Audio Commentar
Аудио 4: English: 48 kHz, AC3, 2/0 (L,R) ch, ~192.00 kbps avg |Special Guest Commentaries (6,8 и 10
Субтитры: Russian (Netflix), English SDH
 
Общее
Полное имя : G:\Рик и Морти - Rick and Morty (2013) S01E01 Пилот - Pilot.mkv
Формат : Matroska
Версия формата : Version 4
Размер файла : 5,63 Гбайт
Продолжительность : 22 м. 1 с.
Режим общего битрейта : Переменный
Общий поток : 36,6 Мбит/сек
Название фильма : Рик и Морти / Rick and Morty (2013) S01E01 Пилот / Pilot
Дата кодирования : UTC 2021-07-21 05:52:06
Программа кодирования : mkvmerge v58.0.0 ('Supper's Ready') 64-bit
Библиотека кодирования : libebml v1.4.2 + libmatroska v1.6.4
Обложка : Yes
Attachments : cover.jpg

Видео
Идентификатор : 1
Формат : HEVC
Формат/Информация : High Efficiency Video Coding
Профиль формата : [email protected]@Main
Идентификатор кодека : V_MPEGH/ISO/HEVC
Продолжительность : 22 м. 1 с.
Битрейт : 31,6 Мбит/сек
Ширина : 3 840 пикселей
Высота : 2 160 пикселей
Соотношение сторон : 16:9
Режим частоты кадров : Постоянный
Частота кадров : 23,976 (24000/1001) кадра/сек
Цветовое пространство : YUV
Субдискретизация насыщенности : 4:2:0
Битовая глубина : 8 бит
Бит/(Пиксели*Кадры) : 0.159
Размер потока : 4,87 Гбайт (86%)
Заголовок : HEVC 3840:2160, BitRate: 31,6 Mbit/sec, FrameRate: 23,976
Язык : English
Default : Да
Forced : Нет

Аудио #1
Идентификатор : 2
Формат : DTS XLL
Формат/Информация : Digital Theater Systems
Коммерческое название : DTS-HD Master Audio
Идентификатор кодека : A_DTS
Продолжительность : 22 м. 1 с.
Вид битрейта : Переменный
Битрейт : 2 429 Кбит/сек
Каналы : 6 каналов
Channel layout : C L R Ls Rs LFE
Частота : 48,0 КГц
Частота кадров : 93,750 кадра/сек (512 SPF)
Битовая глубина : 16 бит
Метод сжатия : Без потерь
Размер потока : 383 Мбайт (7%)
Заголовок : Сыендук
Язык : Russian
Default : Да
Forced : Нет

Аудио #2
Идентификатор : 3
Формат : MLP FBA
Формат/Информация : Meridian Lossless Packing FBA
Коммерческое название : Dolby TrueHD
Идентификатор кодека : A_TRUEHD
Продолжительность : 22 м. 1 с.
Вид битрейта : Переменный
Битрейт : 2 190 Кбит/сек
Максимальный битрейт : 3 207 Кбит/сек
Каналы : 6 каналов
Channel layout : L R C LFE Ls Rs
Частота : 48,0 КГц
Частота кадров : 1 200,000 кадров/сек (40 SPF)
Метод сжатия : Без потерь
Размер потока : 345 Мбайт (6%)
Заголовок : English
Язык : English
Default : Нет
Forced : Нет

Аудио #3
Идентификатор : 4
Формат : AC-3
Формат/Информация : Audio Coding 3
Коммерческое название : Dolby Digital
Идентификатор кодека : A_AC3
Продолжительность : 22 м. 1 с.
Вид битрейта : Постоянный
Битрейт : 192 Кбит/сек
Каналы : 2 канала
Channel layout : L R
Частота : 48,0 КГц
Частота кадров : 31,250 кадров/сек (1536 SPF)
Метод сжатия : С потерями
Размер потока : 30,2 Мбайт (1%)
Заголовок : Commentary with Dan Harmon, Justin Roiland and Ryan Elder
Язык : English
Service kind : Complete Main
Default : Нет
Forced : Нет

Текст #1
Идентификатор : 5
Формат : PGS
Режим смешивания : zlib
Идентификатор кодека : S_HDMV/PGS
Идентификатор кодека/Информация : Picture based subtitle format used on BDs/HD-DVDs
Продолжительность : 21 м. 32 с.
Битрейт : 67,5 Кбит/сек
Count of elements : 686
Размер потока : 10,4 Мбайт (0%)
Заголовок : Netflix
Язык : Russian
Default : Нет
Forced : Нет

Текст #2
Идентификатор : 6
Формат : PGS
Режим смешивания : zlib
Идентификатор кодека : S_HDMV/PGS
Идентификатор кодека/Информация : Picture based subtitle format used on BDs/HD-DVDs
Продолжительность : 21 м. 55 с.
Битрейт : 79,2 Кбит/сек
Count of elements : 1438
Размер потока : 12,4 Мбайт (0%)
Заголовок : SDH
Язык : English
Default : Нет
Forced : Нет

Меню
00:00:00.000 : Chapter 1
00:02:07.959 : Chapter 2
00:02:39.824 : Chapter 3
00:08:35.346 : Chapter 4
00:21:35.461 : Chapter 5
Данный релиз будет пробным. Возникло желание посмотреть все сезоны данного мультсериала, однако качество картинки на UHD экране немного разочаровало (мыло попало в глаза). Поэтому было принято решение улучшить картинку средствами AI, что, на мой взгляд, дало довольно хороший результат и теперь можно наслаждаться первым сезоном в UHD качестве. При положительных откликах возможно реализую апскейл последующих сезонов. Приятного просмотра!
[align=center]

Этот торрент недоступен для скачивания без регистрации, однако доступен по публичной magnet-ссылке (источники с публичных трекеров). Перед использованием ссылки прочтите, пожалуйста Пользовательское соглашение, а также как можно дольше оставайтесь на раздаче! Для того, чтобы скачать сам торрент-файл (который видит больше источников), а также для того, чтобы поблагодарить релизера, вам необходимо зарегистрироваться. Если регистрироваться лень - вы можете также попробовать скачать релиз по нашим партнерским ссылкам ниже. Кроме того, зарегистрированным пользователям не показывается всплывающая реклама при скачивании.

[underver.se].t215007.torrent
Трекер: Зарегистрирован   [ 23.07.2021 10:16 ]  
Статус: T временная (by Robbertta at 23.07.2021 15:48)
Поблагодарили: пока никто не поблагодарил...
Тип торрента: публичный - доступные источники с открытых трекеров: 
Размер: 61.92 GB (занимает 14.14 DVDR, для записи нужно 15 болванок DVDR/RW)
 
 

Яндекс.Метрика powered by Sphinx


В Н И М А Н И Е
Сайт не распространяет и не хранит электронные версии произведений, а лишь бесплатно и без коммерческой выгоды (не требуя взамен платы,
SMS и т.д.) предоставляет доступ к создаваемому пользователями каталогу ссылок на торрент-файлы, которые содержат только списки хеш-сумм.
Убедительная просьба с жалобами обращаться напрямую к пользователю, разместившему торрент файл.

Вверх