Loading...
Error

Рик и Морти / Rick and Morty / Сезон: 1 / Серии: 1-11 из 11 (Пит Мишелс, Уэсли Арчер, Брайан Ньютон) [2013, США, Мультфильм, приключения, фантастика, комедия, BDRip 1080p] MVO (TVShows) + Original + Sub (Eng)

Статистика раздачи
Размер:  12.65 GB   |    Зарегистрирован:  1 год 2 месяца   |    Скачан:  6 раз

Полного источника не было: 4 часа

Сидов:  0  |  0 KB/s  ]   Личеров:  0  |  0 KB/s  ]

* - сиды/пиры с внешних источников

   
 
Автор Сообщение

Renesans Пол:Муж

24-Июл-2021 20:50

Рик и Морти / Rick and Morty

Страна: США
Жанр: Мультфильм, приключения, фантастика, комедия
Продолжительность серии: ~00:22:00
Год выпуска: 2013
Перевод: Профессиональный (многоголосый закадровый) TVShows
Режиссёр: Пит Мишелс, Уэсли Арчер, Брайан Ньютон
Роли озвучивали: Джастин Ройланд, Морис ЛаМарш, Кари Уолгрен, Крис Парнелл, Дэн Хармон, Брэндон Джонсон, Райан Ридли, Том Кенни, Сара Чок, Спенсер Грэммер
Описание: В центре сюжета — школьник по имени Морти и его дедушка Рик. Морти — самый обычный мальчик, который ничем не отличается от своих сверстников. А вот его дедуля занимается необычными научными исследованиями и зачастую полностью неадекватен. Он может в любое время дня и ночи схватить внука и отправиться вместе с ним в межпространственные приключения с помощью построенной из разного хлама летающей тарелки, которая способна перемещаться сквозь временной тоннель. Каждый раз эта парочка оказывается в самых неожиданных местах и самых нелепых ситуациях.
Семпл: https://www.sendspace.com/file/vc2ysd
Качество: BDRip 1080p
Формат: MKV
Видео: MPEG-4 AVC, 1920x1080, 16:9, 23.976 fps, ~6460 kbps
Аудио 1: Русский, AC3, 48 kHz, 6 ch, 384 kbps
Аудио 2: Английский, AAC, 48 kHz, 6 ch, 529 kbps (2-11: AC3, 640 kbps)
Субтитры: Английские
Реклама: Отсутствует
 
General
Unique ID : 328286323074010039673670858276807880138 (0xF6F9A55FDE94C4920591E89A7607ADCA)
Complete name : Rick.And.Morty.S01E01.1080p.TVShows.mkv
Format : Matroska
Format version : Version 4
File size : 1.13 GiB
Duration : 22 min 1 s
Overall bit rate : 7 365 kb/s
Encoded date : UTC 2020-01-29 11:33:02
Writing application : mkvmerge v33.1.0 ('Primrose') 64-bit
Writing library : libebml v1.3.7 + libmatroska v1.5.0

Video
ID : 1
Format : AVC
Format/Info : Advanced Video Codec
Format profile : [email protected]
Format settings : CABAC / 4 Ref Frames
Format settings, CABAC : Yes
Format settings, Reference frames : 4 frames
Codec ID : V_MPEG4/ISO/AVC
Duration : 22 min 1 s
Bit rate : 6 460 kb/s
Width : 1 920 pixels
Height : 1 080 pixels
Display aspect ratio : 16:9
Frame rate mode : Constant
Frame rate : 23.976 (24000/1001) FPS
Color space : YUV
Chroma subsampling : 4:2:0
Bit depth : 8 bits
Scan type : Progressive
Bits/(Pixel*Frame) : 0.130
Stream size : 1 017 MiB (88%)
Writing library : x264 core 142 r2479kMod dd79a61
Encoding settings : cabac=1 / ref=4 / deblock=1:0:0 / analyse=0x3:0x133 / me=umh / subme=7 / psy=1 / fade_compensate=0.00 / psy_rd=1.00:0.00 / mixed_ref=1 / me_range=16 / chroma_me=1 / trellis=1 / 8x8dct=1 / cqm=0 / deadzone=21,11 / fast_pskip=1 / chroma_qp_offset=-2 / threads=18 / lookahead_threads=3 / sliced_threads=0 / nr=0 / decimate=1 / interlaced=0 / bluray_compat=0 / constrained_intra=0 / fgo=0 / bframes=3 / b_pyramid=2 / b_adapt=2 / b_bias=0 / direct=3 / weightb=1 / open_gop=0 / weightp=2 / keyint=250 / keyint_min=23 / scenecut=40 / intra_refresh=0 / rc_lookahead=40 / rc=2pass / mbtree=1 / bitrate=6460 / ratetol=1.0 / qcomp=0.60 / qpmin=0 / qpmax=69 / qpstep=4 / cplxblur=20.0 / qblur=0.5 / ip_ratio=1.40 / aq=1:1.00
Default : Yes
Forced : No

Audio #1
ID : 2
Format : AC-3
Format/Info : Audio Coding 3
Commercial name : Dolby Digital
Codec ID : A_AC3
Duration : 22 min 1 s
Bit rate mode : Constant
Bit rate : 384 kb/s
Channel(s) : 6 channels
Channel layout : L R C LFE Ls Rs
Sampling rate : 48.0 kHz
Frame rate : 31.250 FPS (1536 SPF)
Compression mode : Lossy
Stream size : 60.5 MiB (5%)
Title : TVShows
Language : Russian
Service kind : Complete Main
Default : Yes
Forced : Yes

Audio #2
ID : 3
Format : AAC LC
Format/Info : Advanced Audio Codec Low Complexity
Codec ID : A_AAC-2
Duration : 22 min 1 s
Bit rate : 529 kb/s
Channel(s) : 6 channels
Channel layout : C L R Ls Rs LFE
Sampling rate : 48.0 kHz
Frame rate : 46.875 FPS (1024 SPF)
Compression mode : Lossy
Stream size : 82.0 MiB (7%)
Title : Original
Language : English
Default : No
Forced : No

Text
ID : 4
Format : UTF-8
Codec ID : S_TEXT/UTF8
Codec ID/Info : UTF-8 Plain Text
Duration : 21 min 55 s
Bit rate : 135 b/s
Count of elements : 717
Stream size : 21.7 KiB (0%)
Title : English
Language : English
Default : No
Forced : No

Этот торрент недоступен для скачивания без регистрации, однако доступен по публичной magnet-ссылке (источники с публичных трекеров). Перед использованием ссылки прочтите, пожалуйста Пользовательское соглашение, а также как можно дольше оставайтесь на раздаче! Для того, чтобы скачать сам торрент-файл (который видит больше источников), а также для того, чтобы поблагодарить релизера, вам необходимо зарегистрироваться. Если регистрироваться лень - вы можете также попробовать скачать релиз по нашим партнерским ссылкам ниже. Кроме того, зарегистрированным пользователям не показывается всплывающая реклама при скачивании.

[underver.se].t215344.torrent
Трекер: Зарегистрирован   [ 24.07.2021 20:50 ]  
Статус: проверено (by Robbertta at 25.07.2021 08:45)
Поблагодарили: пока никто не поблагодарил...
Тип торрента: публичный - доступные источники с открытых трекеров: 
Размер: 12.65 GB (занимает 2.89 DVDR, для записи нужно 3 болванки DVDR/RW)
 
 

Яндекс.Метрика powered by Sphinx


В Н И М А Н И Е
Сайт не распространяет и не хранит электронные версии произведений, а лишь бесплатно и без коммерческой выгоды (не требуя взамен платы,
SMS и т.д.) предоставляет доступ к создаваемому пользователями каталогу ссылок на торрент-файлы, которые содержат только списки хеш-сумм.
Убедительная просьба с жалобами обращаться напрямую к пользователю, разместившему торрент файл.

Вверх