Loading...
Error

(Classical) Antonio Vivaldi - Vivaldi Concerti: Goran Sollscher, Guitar, Camerata Bern (1985) [FLAC (Image+.CUE), Lossless]

Статистика раздачи
Размер:  307 MB   |    Зарегистрирован:  8 лет 6 месяцев   |    Скачан:  41 раз

Полного источника не было: 8 дней

Сидов:  0  |  0 KB/s  ]   Личеров:  0  |  0 KB/s  ]

* - сиды/пиры с внешних источников

   
 
Автор Сообщение

svpavkin Пол:Муж

16-Сен-2012 14:37

Antonio Vivaldi - Vivaldi Concerti Goran Sollscher, Guitar, Camerata Bern (1985)

Жанр: Classical
Год выпуска: 1985
Производитель диска: Deutche Grammophon, 415 487-2
Аудиокодек: FLAC
Тип рипа: Image+.CUE
Битрейт аудио: lossless
Продолжительность: 01:02:41

Треклист:

Concerto For Lute, Violins And Basso Continuo In D Major, RV 93
1. (Allegro Giusto) 3:27
2. Largo 5:03
3. Allegro 2:03
Trio For Violin, Lute And Basso Continuo In G Minor, RV 85
4. Andante Molto 4:41
5. Larghetto 3:02
6. Allegro 1:43

Concerto For 2 Violins, Strings And Basso Continuo In B Major, RV 524
7. Allegro 4:20
8. Andante 3:56
9. Allegro 2:54

Concerto For 2 Mandolins, Strings And Basso Continuo In G Major, RV 532
10. Allegro 3:58
11. Andante 4:30
12. Allegro 3:21

Concerto For 2 Violoncellos, Strings And Basso Continuo In G Minor, RV 531
13. Allegro 3:48
14. Largo 3:08
15. Allegro 3:05

Trio For Violin, Lute And Basso Continuo In C Major, RV 82

16. Allegro Molto 3:54
17. Larghetto 3:18
18. Allegro 1:53
Exact Audio Copy V0.99 prebeta 5 from 4. May 2009

EAC extraction logfile from 13. May 2010, 16:46

Gцran Sцllscher, Camerata Bern / Antonio Vivaldi: Concerti

Used drive : ASUS SDRW-0806T-D Adapter: 3 ID: 0

Read mode : Secure
Utilize accurate stream : Yes
Defeat audio cache : Yes
Make use of C2 pointers : No

Read offset correction : 704
Overread into Lead-In and Lead-Out : No
Fill up missing offset samples with silence : Yes
Delete leading and trailing silent blocks : No
Null samples used in CRC calculations : No
Used interface : Native Win32 interface for Win NT & 2000

Used output format : User Defined Encoder
Selected bitrate : 768 kBit/s
Quality : High
Add ID3 tag : No
Command line compressor : C:\Program Files\Exact Audio Copy\FLAC\FLAC.EXE
Additional command line options : -6 -V -T "ARTIST=%a" -T "TITLE=%t" -T "ALBUM=%g" -T "DATE=%y" -T "TRACKNUMBER=%n" -T "GENRE=%m" -T "COMMENT=%e" %s -o %d

TOC of the extracted CD

Track | Start | Length | Start sector | End sector
---------------------------------------------------------
1 | 0:00.33 | 3:30.17 | 33 | 15799
2 | 3:30.50 | 5:03.35 | 15800 | 38559
3 | 8:34.10 | 2:06.55 | 38560 | 48064
4 | 10:40.65 | 4:43.35 | 48065 | 69324
5 | 15:24.25 | 3:04.13 | 69325 | 83137
6 | 18:28.38 | 1:45.27 | 83138 | 91039
7 | 20:13.65 | 4:22.05 | 91040 | 110694
8 | 24:35.70 | 3:55.73 | 110695 | 128392
9 | 28:31.68 | 2:58.05 | 128393 | 141747
10 | 31:29.73 | 4:00.70 | 141748 | 159817
11 | 35:30.68 | 4:30.67 | 159818 | 180134
12 | 40:01.60 | 3:25.50 | 180135 | 195559
13 | 43:27.35 | 3:49.65 | 195560 | 212799
14 | 47:17.25 | 3:07.53 | 212800 | 226877
15 | 50:25.03 | 3:09.15 | 226878 | 241067
16 | 53:34.18 | 3:56.07 | 241068 | 258774
17 | 57:30.25 | 3:18.48 | 258775 | 273672
18 | 60:48.73 | 1:53.07 | 273673 | 282154

Range status and errors

Selected range

Filename D:\RIP\CDImage.wav

Peak level 84.8 %
Range quality 100.0 %
Test CRC 2FEBFC52
Copy CRC 2FEBFC52
Copy OK

No errors occurred

AccurateRip summary
Track 1 accurately ripped (confidence 2) [FEE4B2CF]
Track 2 accurately ripped (confidence 2) [A9DDA5C3]
Track 3 accurately ripped (confidence 2) [EAF3A782]
Track 4 accurately ripped (confidence 2) [D5650451]
Track 5 accurately ripped (confidence 2) [6F57E078]
Track 6 accurately ripped (confidence 2) [7FE3C851]
Track 7 accurately ripped (confidence 2) [965F2444]
Track 8 accurately ripped (confidence 2) [95FF4073]
Track 9 accurately ripped (confidence 2) [C3DEB2C7]
Track 10 accurately ripped (confidence 2) [2318904A]
Track 11 accurately ripped (confidence 2) [8A2E9979]
Track 12 accurately ripped (confidence 2) [7503FF36]
Track 13 accurately ripped (confidence 2) [53D366BC]
Track 14 accurately ripped (confidence 2) [9B724165]
Track 15 accurately ripped (confidence 2) [E3CFF385]
Track 16 accurately ripped (confidence 2) [A6E2CBFA]
Track 17 accurately ripped (confidence 2) [60A18ACF]
Track 18 accurately ripped (confidence 2) [54F255B5]
All tracks accurately ripped

End of status report

Этот торрент недоступен для скачивания без регистрации, однако доступен по публичной magnet-ссылке (источники с публичных трекеров). Перед использованием ссылки прочтите, пожалуйста Пользовательское соглашение, а также как можно дольше оставайтесь на раздаче! Для того, чтобы скачать сам торрент-файл (который видит больше источников), а также для того, чтобы поблагодарить релизера, вам необходимо зарегистрироваться. Если регистрироваться лень - вы можете также попробовать скачать релиз по нашим партнерским ссылкам ниже. Кроме того, зарегистрированным пользователям не показывается всплывающая реклама при скачивании.

[underverse.su].t19915.torrent
Трекер: Зарегистрирован   [ 16.09.2012 14:37 ]  

Статус: проверено (by garry at 16.09.2012 15:24)
Поблагодарили: 2 человека
Тип торрента: публичный - доступные источники с открытых трекеров: 
Размер: 307 MB (занимает 0,07 DVDR, для записи нужно 1 болванка DVDR/RW)
 
 
Похожие темы
Форум Тема Автор Торрент Отв. Посл. сооб.
Сборники Pop, Disco, Dance (Classical, Piano) VA - Piano Covers: 14 Beautiful Piano Arrangements Of Pop Hits (2019) [MP3, 320 kbps CBR] 90ytr90
7 | 0

0 | 529

19

14.09.2019 07:27

Сборники Pop, Disco, Dance (Classical, Easy Listening, Jazz, Score, Ballad) VA - The Sound Of Musicals The Ultimate Collection (Box Set, 5CD) (2019) [MP3, 320 kbps CBR] Magnat
0 | 0

0 | 543

6

28.10.2019 11:46

Вокальные и хоровые искусства (Classical) Jamie Barton - All Who Wander (Mahler, Dvorak, Sibelius; Zeger) (2016) [MP3, 320 kbps CBR] Darkferse
1 | 0

0 | 1678

7

04.09.2017 21:29

Вокальные и хоровые искусства (Classical, Romantic) Elina Garanca, Orquestra de la Comunitat Valenciana, Roberto Abbado - Revive (2016) [MP3, 320 kbps CBR] Darkferse
0 | 0

0 | 1567

5

04.09.2017 21:42

Вокальные и хоровые искусства (Classical) Khoren Mekanejian - Khorenian Divine Liturgy (Choir of St. Gregory the Illuminator Cathedral) (2017) [MP3, 320 kbps CBR] Darkferse
0 | 1

0 | 1459

3

04.09.2017 22:35

Оркестровая музыка (Classical) Прокофьев - Complete Symphonies/Полное собрание Симфоний [Валерий Гергиев, London Symphony Orchestra] (2006) [MP3, 320 kbps] Jimmy
0 | 0

0 | 3864

27

18.12.2013 17:55

Оркестровая музыка (Classical) Прокофьев - Complete Piano Concertos/Полное собрание Концертов для фортепиано [Александр Торадзе, Валерий Гергиев] (1997) [MP3, 320 kbps] Jimmy
0 | 0

0 | 3936

19

19.12.2013 16:52

Оркестровая музыка (Classical) Beethoven/Бетховен - Complete Symphonies and Piano Concertos/Полное собрание Симфоний и Концертов для фортепиано [Otto Klemperer, Daniel Barenboim] (2000) [MP3, 320 kbps] Jimmy
1 | 1

0 | 4777

38

24.12.2013 15:37

Оркестровая музыка (Classical) Шостакович - Полное собрание Симфоний / Complete Symphonies (Василий Петренко / Vasily Petrenko) (2015) [MP3, 320 kbps CBR] Darkferse
1 | 0

0 | 1559

17

28.12.2017 00:17

Камерная и инструментальная музыка (Classical) Вольфганг Амадей Моцарт / Wolfgang Amadeus Mozart - Romantic Classic (1999) [MP3, 320 kbps CBR] terra07
2 | 0

1 | 5487

80

13.04.2015 16:28


Яндекс.Метрика powered by Sphinx


В Н И М А Н И Е
Сайт не распространяет и не хранит электронные версии произведений, а лишь бесплатно и без коммерческой выгоды (не требуя взамен платы,
SMS и т.д.) предоставляет доступ к создаваемому пользователями каталогу ссылок на торрент-файлы, которые содержат только списки хеш-сумм.
Убедительная просьба с жалобами обращаться напрямую к пользователю, разместившему торрент файл.

Вверх