Loading...
Error

Гнев человеческий / Wrath of man (Гай Ричи / Guy Ritchie) [2021 г., боевик, триллер, BDRip-AVC] Dub (iTunes) + MVO (HDRezka Studio) + 2xAVO (Яроцкий, Пучков) + Sub (Rus, Eng)

Статистика раздачи
Размер:  3.18 GB   |    Зарегистрирован:  1 год 2 месяца   |    Скачан:  68 раз

Полного источника не было: 11 часов

Сидов:  0  |  0 KB/s  ]   Личеров:  0  |  0 KB/s  ]

* - сиды/пиры с внешних источников

   
 
Автор Сообщение

90ytr90 

29-Июл-2021 21:04

Гнев человеческий / Wrath of man


Страна: США, Великобритания
Год выпуска: 2021
Жанр: боевик, триллер
Продолжительность: 01:58:56
Озвучивание:
  • профессиональное (полное дублирование) [iTunes]
  • профессиональное (многоголосое закадровое) [HDRezka Studio, с цензурой]
  • профессиональное (многоголосое закадровое) [HDRezka Studio, без цензуры]
  • авторское (одноголосое закадровое) [М.Яроцкий, без цензуры]
  • авторское (одноголосое закадровое) [Д.Пучков, без цензуры]

Режиссёр: Гай Ричи / Guy Ritchie

В ролях:
    Джейсон Стэйтем, Холт МакКэллани, Джеффри Донован, Джош Хартнетт, Лаз Алонсо, Алекс Фернс, Рауль Кастильо, Деобиа Опарей, Скотт Иствуд, Нив Алгар


Сюжет фильма:
    Эйч — загадочный и холодный на вид джентльмен, но внутри него пылает жажда справедливости. Преследуя свои мотивы, он внедряется в инкассаторскую компанию, чтобы выйти на соучастников серии многомиллионных ограблений, потрясших Лос-Анджелес. В этой запутанной игре у каждого своя роль, но под подозрением оказываются все. Виновных же обязательно постигнет гнев человеческий.

  • Дата мировой премьеры: 22 апреля 2021
  • Дата российской премьеры: 22 апреля 2021, «Вольга» IMAX
  • Цифровой релиз: 4 июня 2021, «Вольга»
             
Качество видео: BDRip-AVC
Формат: MKV
Видео: AVC, 1024x432 (2.40:1), 1649 kbps, 23.976 (24000/1001) fps, 0.155 bit/pixel
Аудио #1: AC3, 384 kbps, 6 ch, 48 kHz, Dub [iTunes]
Аудио #2: AC3, 448 kbps, 6 ch, 48 kHz, MVO [HDRezka Studio, с цензурой]
Аудио #3: AC3, 448 kbps, 6 ch, 48 kHz, MVO [HDRezka Studio, без цензуры]
Аудио #4: AC3, 448 kbps, 6 ch, 48 kHz, AVO [М.Яроцкий, без цензуры]
Аудио #5: AC3, 448 kbps, 6 ch, 48 kHz, AVO [Д.Пучков, без цензуры]
Субтитры: Russian (forced (HDRezka Studio)), Russian (full (Enigma)), English (full, SDH)

Rip by Oleg2012i



General
Unique ID : 222822751199862644592770211370577007687 (0xA7A219D3721D43C1B88DE80A80F59447)
Complete name : D:\Gnev_chelovecheskiy.Dub.MVO.AVO.2021.BDRip (AVC).mkv
Format : Matroska
Format version : Version 4
File size : 3.18 GiB
Duration : 1 h 58 min
Overall bit rate : 3 828 kb/s
Encoded date : UTC 2021-07-29 20:06:19
Writing application : mkvmerge v8.3.0 ('Over the Horizon') 64bit
Writing library : libebml v1.3.1 + libmatroska v1.4.2

Video
ID : 1
Format : AVC
Format/Info : Advanced Video Codec
Format profile : [email protected]
Format settings : CABAC / 12 Ref Frames
Format settings, CABAC : Yes
Format settings, Reference : 12 frames
Codec ID : V_MPEG4/ISO/AVC
Duration : 1 h 58 min
Bit rate : 1 649 kb/s
Width : 1 024 pixels
Height : 432 pixels
Display aspect ratio : 2.40:1
Frame rate mode : Constant
Frame rate : 23.976 (24000/1001) FPS
Color space : YUV
Chroma subsampling : 4:2:0
Bit depth : 8 bits
Scan type : Progressive
Bits/(Pixel*Frame) : 0.155
Stream size : 1.37 GiB (43%)
Writing library : x264 core 148 r2638 7599210
Encoding settings : cabac=1 / ref=12 / deblock=1:-2:-1 / analyse=0x3:0x113 / me=umh / subme=10 / psy=1 / psy_rd=1.00:0.20 / mixed_ref=1 / me_range=48 / chroma_me=1 / trellis=2 / 8x8dct=1 / cqm=0 / deadzone=21,11 / fast_pskip=0 / chroma_qp_offset=-3 / threads=10 / lookahead_threads=2 / sliced_threads=0 / nr=0 / decimate=0 / interlaced=0 / bluray_compat=0 / constrained_intra=0 / bframes=12 / b_pyramid=2 / b_adapt=2 / b_bias=0 / direct=3 / weightb=1 / open_gop=0 / weightp=2 / keyint=240 / keyint_min=23 / scenecut=40 / intra_refresh=0 / rc_lookahead=40 / rc=2pass / mbtree=1 / bitrate=1649 / ratetol=1.0 / qcomp=0.60 / qpmin=0 / qpmax=69 / qpstep=4 / cplxblur=20.0 / qblur=0.5 / vbv_maxrate=50000 / vbv_bufsize=62500 / nal_hrd=none / filler=0 / ip_ratio=1.40 / aq=1:1.00
Default : Yes
Forced : No

Audio #1
ID : 2
Format : AC-3
Format/Info : Audio Coding 3
Commercial name : Dolby Digital
Codec ID : A_AC3
Duration : 1 h 58 min
Bit rate mode : Constant
Bit rate : 384 kb/s
Channel(s) : 6 channels
Channel layout : L R C LFE Ls Rs
Sampling rate : 48.0 kHz
Frame rate : 31.250 FPS (1536 SPF)
Compression mode : Lossy
Stream size : 327 MiB (10%)
Title : Dub [iTunes]
Language : Russian
Service kind : Complete Main
Default : Yes
Forced : No

Audio #2
ID : 3
Format : AC-3
Format/Info : Audio Coding 3
Commercial name : Dolby Digital
Codec ID : A_AC3
Duration : 1 h 58 min
Bit rate mode : Constant
Bit rate : 448 kb/s
Channel(s) : 6 channels
Channel layout : L R C LFE Ls Rs
Sampling rate : 48.0 kHz
Frame rate : 31.250 FPS (1536 SPF)
Compression mode : Lossy
Stream size : 381 MiB (12%)
Title : MVO [HDRezka Studio]_Censored
Language : Russian
Service kind : Complete Main
Default : No
Forced : No

Audio #3
ID : 4
Format : AC-3
Format/Info : Audio Coding 3
Commercial name : Dolby Digital
Codec ID : A_AC3
Duration : 1 h 58 min
Bit rate mode : Constant
Bit rate : 448 kb/s
Channel(s) : 6 channels
Channel layout : L R C LFE Ls Rs
Sampling rate : 48.0 kHz
Frame rate : 31.250 FPS (1536 SPF)
Compression mode : Lossy
Stream size : 381 MiB (12%)
Title : MVO [HDRezka Studio]_Uncensored
Language : Russian
Service kind : Complete Main
Default : No
Forced : No

Audio #4
ID : 5
Format : AC-3
Format/Info : Audio Coding 3
Commercial name : Dolby Digital
Codec ID : A_AC3
Duration : 1 h 58 min
Bit rate mode : Constant
Bit rate : 448 kb/s
Channel(s) : 6 channels
Channel layout : L R C LFE Ls Rs
Sampling rate : 48.0 kHz
Frame rate : 31.250 FPS (1536 SPF)
Compression mode : Lossy
Stream size : 381 MiB (12%)
Title : AVO [Яроцкий]_Uncensored
Language : Russian
Service kind : Complete Main
Default : No
Forced : No

Audio #5
ID : 6
Format : AC-3
Format/Info : Audio Coding 3
Commercial name : Dolby Digital
Codec ID : A_AC3
Duration : 1 h 58 min
Bit rate mode : Constant
Bit rate : 448 kb/s
Channel(s) : 6 channels
Channel layout : L R C LFE Ls Rs
Sampling rate : 48.0 kHz
Frame rate : 31.250 FPS (1536 SPF)
Compression mode : Lossy
Stream size : 381 MiB (12%)
Title : AVO [Пучков]_Uncensored
Language : Russian
Service kind : Complete Main
Default : No
Forced : No

Text #1
ID : 7
Format : UTF-8
Codec ID : S_TEXT/UTF8
Codec ID/Info : UTF-8 Plain Text
Duration : 1 h 11 min
Bit rate : 0 b/s
Count of elements : 11
Stream size : 463 Bytes (0%)
Title : Forced [HDR]
Language : Russian
Default : Yes
Forced : No

Text #2
ID : 8
Format : UTF-8
Codec ID : S_TEXT/UTF8
Codec ID/Info : UTF-8 Plain Text
Duration : 1 h 52 min
Bit rate : 96 b/s
Count of elements : 1771
Stream size : 79.1 KiB (0%)
Title : Full [Enigma]
Language : Russian
Default : No
Forced : No

Text #3
ID : 9
Format : UTF-8
Codec ID : S_TEXT/UTF8
Codec ID/Info : UTF-8 Plain Text
Duration : 1 h 50 min
Bit rate : 63 b/s
Count of elements : 1792
Stream size : 51.5 KiB (0%)
Language : English
Default : No
Forced : No

Text #4
ID : 10
Format : UTF-8
Codec ID : S_TEXT/UTF8
Codec ID/Info : UTF-8 Plain Text
Duration : 1 h 50 min
Bit rate : 70 b/s
Count of elements : 1990
Stream size : 56.8 KiB (0%)
Title : SDH
Language : English
Default : No
Forced : No



pic pic pic pic

Этот торрент недоступен для скачивания без регистрации, однако доступен по публичной magnet-ссылке (источники с публичных трекеров). Перед использованием ссылки прочтите, пожалуйста Пользовательское соглашение, а также как можно дольше оставайтесь на раздаче! Для того, чтобы скачать сам торрент-файл (который видит больше источников), а также для того, чтобы поблагодарить релизера, вам необходимо зарегистрироваться. Если регистрироваться лень - вы можете также попробовать скачать релиз по нашим партнерским ссылкам ниже. Кроме того, зарегистрированным пользователям не показывается всплывающая реклама при скачивании.

[underver.se].t215815.torrent
Трекер: Зарегистрирован   [ 29.07.2021 21:04 ]  
Статус: проверено (by eXtatik at 31.07.2021 20:16)
Поблагодарили: 2 человека
Тип торрента: публичный - доступные источники с открытых трекеров: 
Размер: 3.18 GB (занимает 0.73 DVDR, для записи нужно 1 болванка DVDR/RW)
 
 

cheloweck.dojdya Пол:Муж

29-Июл-2021 22:06

Цитата:

Аудио #5: AC3, 448 kbps, 6 ch, 48 kHz, AVO [Д.Пучков, без цензуры]
Ну если сам Гоблин озвучивает,тогда качаем :ROFL:

Яндекс.Метрика powered by Sphinx


В Н И М А Н И Е
Сайт не распространяет и не хранит электронные версии произведений, а лишь бесплатно и без коммерческой выгоды (не требуя взамен платы,
SMS и т.д.) предоставляет доступ к создаваемому пользователями каталогу ссылок на торрент-файлы, которые содержат только списки хеш-сумм.
Убедительная просьба с жалобами обращаться напрямую к пользователю, разместившему торрент файл.

Вверх