Loading...
Error

Ледяной драйв / The Ice Road (Джонатан Хенсли) [2021 г., боевик, триллер, WEB-DLRip 720p] [Локализованный видеоряд] Dub (Мосфильм Мастер) + Original (Eng) + Sub (Rus, Eng)

Статистика раздачи
Размер:  2.62 GB   |    Зарегистрирован:  1 год 1 месяц   |    Скачан:  12 раз

Полного источника не было: 3 месяца 14 дней

Сидов:  0  |  0 KB/s  ]   Личеров:  0  |  0 KB/s  ]

* - сиды/пиры с внешних источников

   
 
Автор Сообщение

eXtatik Пол:Муж

08-Авг-2021 14:40

Ледяной драйв / The Ice Road


Страна: США / Aperture Media Partners, Code Entertainment, Envision Media Arts, Ice Road Productions, Manitoba Film & Music, ShivHans Pictures, Solution Entertainment Group
Год выпуска: 2021
Жанр: боевик, триллер
Продолжительность: 01:49:15
Озвучивание: профессиональное (полное дублирование) [Мосфильм Мастер]
Режиссёр: Джонатан Хенсли

В ролях:
    Лиам Нисон, Лоренс Фишбёрн, Бенджамин Уокер, Эмбер Мидфандер, Маркус Томас, Холт Маккэллани, Мартин Сенсмейер, Мэтт МакКой, Мэтт Сэлинджер, Чад Брюс


Сюжет фильма:
    Север Канады. Ненадёжный апрельский лёд, вес грузовика — 33 тонны. Проехать по замерзшей поверхности озера возможно только на определенной скорости, а остановка или ускорение означают верную смерть. Но именно такая задача стоит перед колонной грузовиков — только они могут спасти людей, оказавшихся в обрушившейся алмазной шахте. Однако ни трескающийся под колёсами лёд, ни снежная буря не сравнятся с испытаниями, которые ждут водителей впереди.

         
Качество видео: WEB-DLRip 720p Локализованный видеоряд
Исходник: The.Ice.Road.2021.Local.WEB-DL.1080p.seleZen
Формат: MKV
Видео: AVC, 1280x536 (2.40:1), 2500 kbps, 25 fps, 0.146 bit/pixel
Аудио #1: AC3, 448 kbps, 6 ch, 48 kHz, русский, профессиональный дубляж (Мосфильм Мастер)
Аудио #2: AC3, 640 kbps, 6 ch, 48 kHz, английский, оригинал
Субтитры: Russian (full), English (full), English (SDH)
Формат субтитров: softsub (SRT)
x264 [info]: frame I:1372  Avg QP:14.90  size: 82854 
x264 [info]: frame P:45974 Avg QP:18.71 size: 22559
x264 [info]: frame B:109514 Avg QP:20.78 size: 7361
x264 [info]: consecutive B-frames: 5.5% 6.6% 12.7% 55.6% 7.0% 7.5% 1.6% 2.3% 0.2% 0.2% 0.0% 0.1% 0.0% 0.0% 0.6%

General
Unique ID : 217293881679542031291543647365442677680 (0xA3794783361CB20A7C0EF061B655ABB0)
Complete name : K:Ледяной драйв.(2021).WEB-DLRip.x264.720p.[-=DoMiNo=-].mkv
Format : Matroska
Format version : Version 4
File size : 2.62 GiB
Duration : 1 h 44 min
Overall bit rate : 3 586 kb/s
Movie name : Ледяной драйв.(2021).WEB-DLRip.x264.720p.[-=DoMiNo=-]
Encoded date : UTC 2021-08-08 14:24:32
Writing application : mkvmerge v60.0.0 ('Are We Copies?') 64-bit
Writing library : libebml v1.4.2 + libmatroska v1.6.4
Cover : Yes
Attachments : Cover.jpg

Video
ID : 1
Format : AVC
Format/Info : Advanced Video Codec
Format profile : [email protected]
Format settings : CABAC / 12 Ref Frames
Format settings, CABAC : Yes
Format settings, Reference : 12 frames
Codec ID : V_MPEG4/ISO/AVC
Duration : 1 h 44 min
Bit rate : 2 500 kb/s
Width : 1 280 pixels
Height : 536 pixels
Display aspect ratio : 2.40:1
Frame rate mode : Constant
Frame rate : 25.000 FPS
Color space : YUV
Chroma subsampling : 4:2:0
Bit depth : 8 bits
Scan type : Progressive
Bits/(Pixel*Frame) : 0.146
Stream size : 1.82 GiB (70%)
Title : -=DoMiNo=-
Writing library : x264 core 164 r3065+55M 280faca t_mod_New [(8 & 10)[email protected] X86_64]
Encoding settings : cabac=1 / ref=12 / deblock=1:-3:-2 / analyse=0x3:0x133 / me=umh / subme=10 / psy=1 / fade_compensate=0.00 / psy_rd=1.05:0.05 / mixed_ref=1 / me_range=32 / chroma_me=1 / trellis=2 / 8x8dct=1 / cqm=0 / deadzone=21,11 / fast_pskip=0 / chroma_qp_offset=-3 / threads=24 / lookahead_threads=4 / sliced_threads=0 / nr=0 / decimate=0 / interlaced=0 / bluray_compat=0 / constrained_intra=0 / fgo=0 / bframes=14 / b_pyramid=2 / b_adapt=2 / b_bias=0 / direct=3 / weightb=1 / open_gop=0 / weightp=2 / keyint=240 / keyint_min=24 / scenecut=40 / intra_refresh=0 / rc_lookahead=60 / rc=2pass / mbtree=0 / bitrate=2500 / ratetol=1.0 / qcomp=0.70 / qpmin=0:0:0 / qpmax=69:69:69 / qpstep=4 / cplxblur=20.0 / qblur=0.5 / vbv_maxrate=50000 / vbv_bufsize=62500 / nal_hrd=none / filler=0 / ip_ratio=1.40 / pb_ratio=1.30 / aq=3:0.80 / aq-sensitivity=10.00 / aq-factor=1.00:1.00:1.00 / aq2=0 / aq3=0
Language : English
Default : Yes
Forced : No

Audio #1
ID : 2
Format : AC-3
Format/Info : Audio Coding 3
Commercial name : Dolby Digital
Codec ID : A_AC3
Duration : 1 h 44 min
Bit rate mode : Constant
Bit rate : 448 kb/s
Channel(s) : 6 channels
Channel layout : L R C LFE Ls Rs
Sampling rate : 48.0 kHz
Frame rate : 31.250 FPS (1536 SPF)
Compression mode : Lossy
Stream size : 335 MiB (12%)
Title : Dub [Мосфильм-Мастер]
Language : Russian
Service kind : Complete Main
Default : Yes
Forced : Yes

Audio #2
ID : 3
Format : AC-3
Format/Info : Audio Coding 3
Commercial name : Dolby Digital
Codec ID : A_AC3
Duration : 1 h 44 min
Bit rate mode : Constant
Bit rate : 640 kb/s
Channel(s) : 6 channels
Channel layout : L R C LFE Ls Rs
Sampling rate : 48.0 kHz
Frame rate : 31.250 FPS (1536 SPF)
Compression mode : Lossy
Stream size : 479 MiB (18%)
Title : Original
Language : English
Service kind : Complete Main
Default : No
Forced : No

Text #1
ID : 4
Format : UTF-8
Codec ID : S_TEXT/UTF8
Codec ID/Info : UTF-8 Plain Text
Duration : 1 h 36 min
Bit rate : 71 b/s
Count of elements : 856
Stream size : 50.1 KiB (0%)
Title : Full
Language : Russian
Default : No
Forced : No

Text #2
ID : 5
Format : UTF-8
Codec ID : S_TEXT/UTF8
Codec ID/Info : UTF-8 Plain Text
Duration : 1 h 39 min
Bit rate : 42 b/s
Count of elements : 1112
Stream size : 31.1 KiB (0%)
Title : Full
Language : English
Default : No
Forced : No

Text #3
ID : 6
Format : UTF-8
Codec ID : S_TEXT/UTF8
Codec ID/Info : UTF-8 Plain Text
Duration : 1 h 41 min
Bit rate : 50 b/s
Count of elements : 1360
Stream size : 37.3 KiB (0%)
Title : SDH
Language : English
Default : No
Forced : No


pic pic pic pic pic pic pic pic pic pic

Этот торрент недоступен для скачивания без регистрации, однако доступен по публичной magnet-ссылке (источники с публичных трекеров). Перед использованием ссылки прочтите, пожалуйста Пользовательское соглашение, а также как можно дольше оставайтесь на раздаче! Для того, чтобы скачать сам торрент-файл (который видит больше источников), а также для того, чтобы поблагодарить релизера, вам необходимо зарегистрироваться. Если регистрироваться лень - вы можете также попробовать скачать релиз по нашим партнерским ссылкам ниже. Кроме того, зарегистрированным пользователям не показывается всплывающая реклама при скачивании.

[underver.se].t217124.torrent
Трекер: Зарегистрирован   [ 08.08.2021 14:40 ]  
Статус: проверено (by eXtatik at 08.08.2021 14:40)
Поблагодарили: пока никто не поблагодарил...
Тип торрента: публичный - доступные источники с открытых трекеров: 
Размер: 2.62 GB (занимает 0.6 DVDR, для записи нужно 1 болванка DVDR/RW)
 
 

Яндекс.Метрика powered by Sphinx


В Н И М А Н И Е
Сайт не распространяет и не хранит электронные версии произведений, а лишь бесплатно и без коммерческой выгоды (не требуя взамен платы,
SMS и т.д.) предоставляет доступ к создаваемому пользователями каталогу ссылок на торрент-файлы, которые содержат только списки хеш-сумм.
Убедительная просьба с жалобами обращаться напрямую к пользователю, разместившему торрент файл.

Вверх