Loading...
Error

Охотник за разумом. Схватка / No Man of God (Эмбер Роуз Сили) [2021 г., драма, криминал, детектив, биография, WEB-DL 720p] DVO (Pazl Voice) + Original (Eng) + Sub (Eng)

Статистика раздачи
Размер:  3.35 GB   |    Зарегистрирован:  1 год   |    Скачан:  13 раз

Полного источника не было: 1 месяц 4 дня

Сидов:  0  |  0 KB/s  ]   Личеров:  0  |  0 KB/s  ]

* - сиды/пиры с внешних источников

   
 
Автор Сообщение

eXtatik Пол:Муж

30-Авг-2021 04:43

Охотник за разумом. Схватка / No Man of God


Страна: США, Company X
Год выпуска: 2021
Жанр: драма, криминал, детектив, биография
Продолжительность: 01:40:22
Озвучивание: любительское (двухголосое закадровое) [Pazl Voice]
Режиссёр: Эмбер Роуз Сили

В ролях:
    Элайджа Вуд, Люк Кирби, У. Эрл Браун, Роберт Патрик, Алекса Палладино, Кристиан Клименсон, Мак Брандт, Хьюго Армстронг, Эмили Берри, Уилл Харрис


Сюжет фильма:
    Аналитик ФБР Билл Хагмайер в рамках нового исследования поведения серийных убийц проводит ряд интервью с Тедом Банди, который убил более 20 женщин. Харизматичная натура преступника начинает искажать восприятие агента, с каждой встречей ему всю сложнее оставаться объективным и не поддаваться очарованию Банди.

             
Качество видео: WEB-DL 720p
Формат: MKV
Видео: AVC, 1448x616
Аудио #1: AC3, 448 kbps, 6 ch, русский, любительский (двухголосый закадровый) (Pazl Voice)
Аудио #2: AC3, 384 kbps, 6 ch, английский, оригинал
Субтитры: English

Реклама спонсора удалена!


pic pic pic pic pic pic pic
Общее
Уникальный идентификатор : 142794748357404793968994391099437112175 (0x6B6D44A733518A353EA6E6F7E5825B6F)
Полное имя : E:TorrentsNo.Man.of.God.2021.720p.WEB-DL_.mkv
Формат : Matroska
Версия формата : Version 4
Размер файла : 3,35 Гбайт
Продолжительность : 1 ч. 40 м.
Общий поток : 4 778 Кбит/сек
Название фильма : No.Man.of.God.2021.720p.WEB-DL_
Дата кодирования : UTC 2021-08-29 15:45:13
Программа кодирования : mkvmerge v59.0.0 ('Shining Star') 64-bit
Библиотека кодирования : libebml v1.4.2 + libmatroska v1.6.4

Видео
Идентификатор : 1
Формат : AVC
Формат/Информация : Advanced Video Codec
Профиль формата : [email protected]
Настройки формата : CABAC / 5 Ref Frames
Параметр CABAC формата : Да
Параметр RefFrames формата : 5 кадров
Идентификатор кодека : V_MPEG4/ISO/AVC
Продолжительность : 1 ч. 40 м.
Битрейт : 3 943 Кбит/сек
Ширина : 1 488 пикселей
Высота : 616 пикселей
Соотношение сторон : 2,40:1
Режим частоты кадров : Постоянный
Частота кадров : 23,976 (24000/1001) кадра/сек
Цветовое пространство : YUV
Субдискретизация насыщенности : 4:2:0
Битовая глубина : 8 бит
Тип развёртки : Прогрессивная
Бит/(Пиксели*Кадры) : 0.179
Размер потока : 2,76 Гбайт (83%)
Default : Да
Forced : Нет
Цветовой диапазон : Limited
Основные цвета : BT.709
Характеристики трансфера : BT.709
Коэффициенты матрицы : BT.709

Аудио #1
Идентификатор : 2
Формат : AC-3
Формат/Информация : Audio Coding 3
Коммерческое название : Dolby Digital
Идентификатор кодека : A_AC3
Продолжительность : 1 ч. 40 м.
Вид битрейта : Постоянный
Битрейт : 448 Кбит/сек
Каналы : 6 каналов
Channel layout : L R C LFE Ls Rs
Частота : 48,0 КГц
Частота кадров : 31,250 кадров/сек (1536 SPF)
Метод сжатия : С потерями
Размер потока : 322 Мбайт (9%)
Заголовок : [DVO.] Pazl Voice | KinoPub
Язык : Russian
Service kind : Complete Main
Default : Да
Forced : Нет

Аудио #2
Идентификатор : 3
Формат : AC-3
Формат/Информация : Audio Coding 3
Коммерческое название : Dolby Digital
Идентификатор кодека : A_AC3
Продолжительность : 1 ч. 40 м.
Вид битрейта : Постоянный
Битрейт : 384 Кбит/сек
Каналы : 6 каналов
Channel layout : L R C LFE Ls Rs
Частота : 48,0 КГц
Частота кадров : 31,250 кадров/сек (1536 SPF)
Метод сжатия : С потерями
Размер потока : 276 Мбайт (8%)
Заголовок : English
Язык : English
Service kind : Complete Main
Default : Нет
Forced : Нет

Текст
Идентификатор : 4
Формат : UTF-8
Идентификатор кодека : S_TEXT/UTF8
Идентификатор кодека/Информация : UTF-8 Plain Text
Продолжительность : 1 ч. 34 м.
Битрейт : 77 бит/сек
Count of elements : 1690
Размер потока : 53,7 Кбайт (0%)
Язык : English
Default : Нет
Forced : Нет

Этот торрент недоступен для скачивания без регистрации, однако доступен по публичной magnet-ссылке (источники с публичных трекеров). Перед использованием ссылки прочтите, пожалуйста Пользовательское соглашение, а также как можно дольше оставайтесь на раздаче! Для того, чтобы скачать сам торрент-файл (который видит больше источников), а также для того, чтобы поблагодарить релизера, вам необходимо зарегистрироваться. Если регистрироваться лень - вы можете также попробовать скачать релиз по нашим партнерским ссылкам ниже. Кроме того, зарегистрированным пользователям не показывается всплывающая реклама при скачивании.

[underver.se].t219413.torrent
Трекер: Зарегистрирован   [ 30.08.2021 04:43 ]  
Статус: T временная (by eXtatik at 30.08.2021 04:43)
Поблагодарили: пока никто не поблагодарил...
Тип торрента: публичный - доступные источники с открытых трекеров: 
Размер: 3.35 GB (занимает 0.77 DVDR, для записи нужно 1 болванка DVDR/RW)
 
 

Яндекс.Метрика powered by Sphinx


В Н И М А Н И Е
Сайт не распространяет и не хранит электронные версии произведений, а лишь бесплатно и без коммерческой выгоды (не требуя взамен платы,
SMS и т.д.) предоставляет доступ к создаваемому пользователями каталогу ссылок на торрент-файлы, которые содержат только списки хеш-сумм.
Убедительная просьба с жалобами обращаться напрямую к пользователю, разместившему торрент файл.

Вверх