Loading...
Error

Бал безумных женщин / Le bal des folles (Мелани Лоран) [2021 г., триллер, WEB-DLRip-HEVC 1080p] DVO (Pazl Voice) + Original (Eng) + Sub (Rus, Eng)

Статистика раздачи
Размер:  2,03 GB   |    Зарегистрирован:  1 месяц 1 день   |    Скачан:  15 раз
Сидов:  1  |  0 KB/s  ]   Личеров:  0  |  0 KB/s  ]

* - сиды/пиры с внешних источников

   
 
Автор Сообщение

eXtatik Пол:Муж

20-Сен-2021 14:39

Бал безумных женщин / Le bal des folles


Страна: Франция, Legende Films
Год выпуска: 2021
Жанр: триллер
Продолжительность: 02:01:49
Озвучивание: любительское (двухголосое закадровое) [Pazl Voice]
Режиссёр: Мелани Лоран

В ролях:
    Мелани Лоран, Сезар Домбой, Лу де Лааж, Эмманюэль Берко, Бенжамен Вуазен, Седрик Кан, Корали Руссье, Cyril Kuhnholtz, Мартин Шевалье, Андре Маркон, Грегуар Бонне, Матильда Рёрих, Алис Барноль, Лорена Телье, Валери Стро


Сюжет фильма:
    Париж, 1880 год. Эжени — лучезарная и страстная девушка, обладающая удивительным даром: она слышит и видит мертвых. Когда семья узнает о ее секрете, Эжени помещают в неврологический госпиталь Сальпетриер, возглавляемую знаменитым профессором Жаном-Мартеном Шарко.

             
Качество видео: WEB-DLRip-HEVC 1080p | AMZN
Формат: MKV
Видео:, 1920x800, 1999 kbps
Аудио #1: AC3, 192 kbps, 2 ch, русский, любительский (двухголосый закадровый) (Pazl Voice)
Аудио #2: AC3, 192 kbps, 2 ch, английский, оригинал
Субтитры: Russian, English
Общее
Уникальный идентификатор: 223377299760854962219649890861901381837 (0xA80CE72E52A14A3D4D2D04550C3380CD)
Полное имя: E:TorrentsThe.Mad.Womens.Ball.2021.WEB-DLRip-HEVC.mkv
Формат: Matroska
Версия формата: Version 4
Размер файла: 2,03 Гбайт
Продолжительность: 2 ч. 1 м.
Общий поток: 2 385 Кбит/сек
Название фильма: The.Mad.Womens.Ball.2021.WEB-DLRip-HEVC
Дата кодирования: UTC 2021-09-20 09:59:28
Программа кодирования: mkvmerge v59.0.0 ('Shining Star') 64-bit
Библиотека кодирования: libebml v1.4.2 + libmatroska v1.6.4

Видео
Идентификатор: 1
Формат: HEVC
Формат/Информация: High Efficiency Video Coding
Профиль формата: Main 10@L4@Main
Идентификатор кодека: V_MPEGH/ISO/HEVC
Продолжительность: 2 ч. 1 м.
Битрейт: 1 999 Кбит/сек
Ширина: 1 920 пикселей
Высота: 800 пикселей
Соотношение сторон: 2,40:1
Режим частоты кадров: Постоянный
Частота кадров: 24,000 кадра/сек
Цветовое пространство: YUV
Субдискретизация насыщенности: 4:2:0
Битовая глубина: 10 бит
Бит/ (Пиксели*Кадры) : 0.054
Размер потока: 1,70 Гбайт (84%)
Библиотека кодирования: x265 3.3+4-rarbg-30eb4de83092:[Linux][GCC 8.3.1][64 bit] 10bit
Настройки программы: cpuid=1111039 / frame-threads=4 / wpp / no-pmode / no-pme / no-psnr / no-ssim / log-level=2 / input-csp=1 / input-res=1920x800 / interlace=0 / total-frames=0 / level-idc=0 / high-tier=1 / uhd-bd=0 / ref=4 / no-allow-non-conformance / no-repeat-headers / annexb / no-aud / no-hrd / info / hash=0 / no-temporal-layers / open-gop / min-keyint=24 / keyint=250 / gop-lookahead=0 / bframes=4 / b-adapt=2 / b-pyramid / bframe-bias=0 / rc-lookahead=25 / lookahead-slices=4 / scenecut=40 / hist-scenecut=0 / radl=0 / no-splice / no-intra-refresh / ctu=64 / min-cu-size=8 / rect / no-amp / max-tu-size=32 / tu-inter-depth=1 / tu-intra-depth=1 / limit-tu=0 / rdoq-level=2 / dynamic-rd=0.00 / no-ssim-rd / signhide / no-tskip / nr-intra=0 / nr-inter=0 / no-constrained-intra / strong-intra-smoothing / max-merge=3 / limit-refs=3 / limit-modes / me=3 / subme=3 / merange=57 / temporal-mvp / no-frame-dup / no-hme / weightp / no-weightb / no-analyze-src-pics / deblock=0:0 / no-sao / no-sao-non-deblock / rd=4 / selective-sao=0 / no-early-skip / rskip / no-fast-intra / no-tskip-fast / no-cu-lossless / no-b-intra / no-splitrd-skip / rdpenalty=0 / psy-rd=2.00 / psy-rdoq=1.00 / no-rd-refine / no-lossless / cbqpoffs=0 / crqpoffs=0 / rc=abr / bitrate=2000 / qcomp=0.60 / qpstep=4 / stats-write=0 / stats-read=2 / cplxblur=20.0 / qblur=0.5 / ipratio=1.40 / pbratio=1.30 / aq-mode=3 / aq-strength=1.00 / cutree / zone-count=0 / no-strict-cbr / qg-size=32 / no-rc-grain / qpmax=69 / qpmin=0 / no-const-vbv / sar=1 / overscan=0 / videoformat=5 / range=0 / colorprim=2 / transfer=2 / colormatrix=2 / chromaloc=0 / display-window=0 / cll=0,0 / min-luma=0 / max-luma=1023 / log2-max-poc-lsb=8 / vui-timing-info / vui-hrd-info / slices=1 / no-opt-qp-pps / no-opt-ref-list-length-pps / no-multi-pass-opt-rps / scenecut-bias=0.05 / hist-threshold=0.01 / no-opt-cu-delta-qp / no-aq-motion / no-hdr10 / no-hdr10-opt / no-dhdr10-opt / no-idr-recovery-sei / analysis-reuse-level=0 / analysis-save-reuse-level=0 / analysis-load-reuse-level=0 / scale-factor=0 / refine-intra=0 / refine-inter=0 / refine-mv=1 / refine-ctu-distortion=0 / no-limit-sao / ctu-info=0 / no-lowpass-dct / refine-analysis-type=0 / copy-pic=1 / max-ausize-factor=1.0 / no-dynamic-refine / no-single-sei / no-hevc-aq / no-svt / no-field / qp-adaptation-range=1.00 / no-scenecut-aware-qpconformance-window-offsets / right=0 / bottom=0
Default: Да
Forced: Нет

Аудио #1
Идентификатор: 2
Формат: AC-3
Формат/Информация: Audio Coding 3
Коммерческое название: Dolby Digital
Идентификатор кодека: A_AC3
Продолжительность: 2 ч. 1 м.
Вид битрейта: Постоянный
Битрейт: 192 Кбит/сек
Каналы: 2 канала
Channel layout: L R
Частота: 48,0 КГц
Частота кадров: 31,250 кадров/сек (1536 SPF)
Метод сжатия: С потерями
Размер потока: 167 Мбайт (8%)
Заголовок: [DVO] Pazl Voice
Язык: Russian
Service kind: Complete Main
Default: Да
Forced: Нет

Аудио #2
Идентификатор: 3
Формат: AC-3
Формат/Информация: Audio Coding 3
Коммерческое название: Dolby Digital
Идентификатор кодека: A_AC3
Продолжительность: 2 ч. 1 м.
Вид битрейта: Постоянный
Битрейт: 192 Кбит/сек
Каналы: 2 канала
Channel layout: L R
Частота: 48,0 КГц
Частота кадров: 31,250 кадров/сек (1536 SPF)
Метод сжатия: С потерями
Размер потока: 167 Мбайт (8%)
Язык: French
Service kind: Complete Main
Default: Нет
Forced: Нет

Текст #1
Идентификатор: 4
Формат: UTF-8
Идентификатор кодека: S_TEXT/UTF8
Идентификатор кодека/Информация: UTF-8 Plain Text
Продолжительность: 2 ч. 0 м.
Битрейт: 53 бит/сек
Count of elements: 1026
Размер потока: 47,3 Кбайт (0%)
Язык: Russian
Default: Нет
Forced: Нет

Текст #2
Идентификатор: 5
Формат: UTF-8
Идентификатор кодека: S_TEXT/UTF8
Идентификатор кодека/Информация: UTF-8 Plain Text
Продолжительность: 2 ч. 0 м.
Битрейт: 32 бит/сек
Count of elements: 1138
Размер потока: 28,5 Кбайт (0%)
Язык: English
Default: Нет
Forced: Нет


pic pic pic pic pic pic pic

Этот торрент недоступен для скачивания без регистрации, однако доступен по публичной magnet-ссылке (источники с публичных трекеров). Перед использованием ссылки прочтите, пожалуйста Пользовательское соглашение, а также как можно дольше оставайтесь на раздаче! Для того, чтобы скачать сам торрент-файл (который видит больше источников), а также для того, чтобы поблагодарить релизера, вам необходимо зарегистрироваться. Если регистрироваться лень - вы можете также попробовать скачать релиз по нашим партнерским ссылкам ниже. Кроме того, зарегистрированным пользователям не показывается всплывающая реклама при скачивании.

[underver.se].t221892.torrent
Трекер: Зарегистрирован   [ 20.09.2021 14:39 ]  

Статус: T временная (by eXtatik at 20.09.2021 14:40)
Поблагодарили: 1 человек
Тип торрента: публичный - доступные источники с открытых трекеров: 
Размер: 2,03 GB (занимает 0,46 DVDR, для записи нужно 1 болванка DVDR/RW)
 
 

Яндекс.Метрика powered by Sphinx


В Н И М А Н И Е
Сайт не распространяет и не хранит электронные версии произведений, а лишь бесплатно и без коммерческой выгоды (не требуя взамен платы,
SMS и т.д.) предоставляет доступ к создаваемому пользователями каталогу ссылок на торрент-файлы, которые содержат только списки хеш-сумм.
Убедительная просьба с жалобами обращаться напрямую к пользователю, разместившему торрент файл.

Вверх