Loading...
Error

Ледяной драйв / The Ice Road (Джонатан Хенсли) [2021 г., боевик, триллер, BDRip 720p] Dub (Мосфильм Мастер) + Original (Eng) + Sub (Rus, Eng)

Статистика раздачи
Размер:  3.32 GB   |    Зарегистрирован:  1 год   |    Скачан:  10 раз

Полного источника не было: 4 дня

Сидов:  0  |  0 KB/s  ]   Личеров:  0  |  0 KB/s  ]

* - сиды/пиры с внешних источников

   
 
Автор Сообщение

FiNikola Пол:Муж

27-Сен-2021 03:18

Ледяной драйв / The Ice Road
Название: Ледяной драйв
Оригинальное название: The Ice Road
Год выпуска: 2021
Жанр: Боевик, триллер

Режиссер: Джонатан Хенсли
Актеры фильма: Лиам Нисон, Лоренс Фишбёрн, Бенджамин Уокер, Эмбер Мидфандер, Маркус Томас, Холт Маккэллани, Мартин Сенсмейер, Мэтт МакКой, Мэтт Сэлинджер, Чад Брюс

Описание: Север Канады. Ненадёжный апрельский лёд, вес грузовика — 33 тонны. Проехать по замерзшей поверхности озера возможно только на определенной скорости, а остановка или ускорение означают верную смерть. Но именно такая задача стоит перед колонной грузовиков — только они могут спасти людей, оказавшихся в обрушившейся алмазной шахте. Однако ни трескающийся под колёсами лёд, ни снежная буря не сравнятся с испытаниями, которые ждут водителей впереди.

Страна: США
Студия: Aperture Media Partners, Code Entertainment, Envision Media Arts, Ice Road Productions, Manitoba Film & Music, ShivHans Pictures, Solution Entertainment Group
Продолжительность: 01:49:15
Перевод: Дублированный | Мосфильм-Мастер
Субтитры: Русские (Forced, Full), английские

Качество: BDRip 720p
Видео: MPEG-4 AVC, 1280x536, 3280 Kbit/s, 24.000 fps
Аудио #01: 48 kHz, AC3, 5.1, 448 Kbps | Дублированный | RUS |
Аудио #02: 48 kHz, AC3, 5.1, 640 Kbps | Оригинал | ENG |
Субтитры: Русские (Forced, Full), английские
General
Unique ID : 193769773788689635219997266755156345937 (0x91C6B3727C95E60A859D65C999D28451)
Complete name : E:The.Ice.Road.2021.BDRip.720p.ExKinoRay.mkv
Format : Matroska
Format version : Version 4
File size : 3.32 GiB
Duration : 1 h 48 min
Overall bit rate : 4 366 kb/s
Movie name : The Ice Road 2021 fromExKinoRay
Encoded date : UTC 2021-09-27 01:26:02
Writing application : mkvmerge v7.3.0 ('Nouages') 64bit built on Oct 22 2014 18:53:34
Writing library : libebml v1.3.0 + libmatroska v1.4.1

Video
ID : 1
Format : AVC
Format/Info : Advanced Video Codec
Format profile : [email protected]
Format settings : CABAC / 12 Ref Frames
Format settings, CABAC : Yes
Format settings, Reference : 12 frames
Codec ID : V_MPEG4/ISO/AVC
Duration : 1 h 48 min
Bit rate : 3 280 kb/s
Width : 1 280 pixels
Height : 536 pixels
Display aspect ratio : 2.40:1
Frame rate mode : Constant
Frame rate : 24.000 FPS
Color space : YUV
Chroma subsampling : 4:2:0
Bit depth : 8 bits
Scan type : Progressive
Bits/(Pixel*Frame) : 0.199
Stream size : 2.49 GiB (75%)
Title : MTeam
Writing library : x264 core 157 r2938 2b00a84 [email protected] Mod
Encoding settings : cabac=1 / ref=12 / deblock=1:-3:-3 / analyse=0x3:0x133 / me=umh / subme=10 / psy=1 / psy_rd=1.05:0.00 / mixed_ref=1 / me_range=32 / chroma_me=1 / trellis=2 / 8x8dct=1 / cqm=0 / deadzone=21,11 / fast_pskip=0 / chroma_qp_offset=-2 / threads=12 / lookahead_threads=2 / sliced_threads=0 / nr=0 / decimate=0 / interlaced=0 / bluray_compat=0 / constrained_intra=0 / bframes=8 / b_pyramid=2 / b_adapt=2 / b_bias=0 / direct=3 / weightb=1 / open_gop=0 / weightp=2 / keyint=250 / keyint_min=24 / scenecut=40 / intra_refresh=0 / rc_lookahead=250 / rc=crf / mbtree=0 / crf=16.8 / qcomp=0.60 / qpmin=0 / qpmax=69 / qpstep=4 / vbv_maxrate=62500 / vbv_bufsize=78125 / crf_max=0.0 / nal_hrd=none / filler=0 / ip_ratio=1.30 / pb_ratio=1.20 / aq=3:0.80
Language : English
Default : Yes
Forced : No
Color range : Limited
Color primaries : BT.709
Matrix coefficients : BT.709

Audio #1
ID : 2
Format : AC-3
Format/Info : Audio Coding 3
Commercial name : Dolby Digital
Codec ID : A_AC3
Duration : 1 h 48 min
Bit rate mode : Constant
Bit rate : 448 kb/s
Channel(s) : 6 channels
Channel layout : L R C LFE Ls Rs
Sampling rate : 48.0 kHz
Frame rate : 31.250 FPS (1536 SPF)
Compression mode : Lossy
Stream size : 349 MiB (10%)
Title : Dubbing
Language : Russian
Service kind : Complete Main
Default : Yes
Forced : Yes

Audio #2
ID : 3
Format : AC-3
Format/Info : Audio Coding 3
Commercial name : Dolby Digital
Format settings : Dolby Surround EX
Codec ID : A_AC3
Duration : 1 h 48 min
Bit rate mode : Constant
Bit rate : 640 kb/s
Channel(s) : 6 channels
Channel layout : L R C LFE Ls Rs
Sampling rate : 48.0 kHz
Frame rate : 31.250 FPS (1536 SPF)
Compression mode : Lossy
Stream size : 498 MiB (15%)
Title : Original
Language : English
Service kind : Complete Main
Default : No
Forced : No

Text #1
ID : 4
Format : UTF-8
Codec ID : S_TEXT/UTF8
Codec ID/Info : UTF-8 Plain Text
Duration : 1 h 41 min
Bit rate : 2 b/s
Count of elements : 20
Stream size : 1.72 KiB (0%)
Title : Forced
Language : Russian
Default : Yes
Forced : Yes

Text #2
ID : 5
Format : UTF-8
Codec ID : S_TEXT/UTF8
Codec ID/Info : UTF-8 Plain Text
Duration : 1 h 40 min
Bit rate : 68 b/s
Count of elements : 856
Stream size : 50.1 KiB (0%)
Title : Full
Language : Russian
Default : No
Forced : No

Text #3
ID : 6
Format : UTF-8
Codec ID : S_TEXT/UTF8
Codec ID/Info : UTF-8 Plain Text
Duration : 1 h 43 min
Bit rate : 40 b/s
Count of elements : 1112
Stream size : 31.1 KiB (0%)
Title : Full
Language : English
Default : No
Forced : No

Text #4
ID : 7
Format : UTF-8
Codec ID : S_TEXT/UTF8
Codec ID/Info : UTF-8 Plain Text
Duration : 1 h 45 min
Bit rate : 48 b/s
Count of elements : 1360
Stream size : 37.3 KiB (0%)
Title : SDH
Language : English
Default : No
Forced : No

Menu
00:00:00.000 : en:Глава 01
00:08:07.000 : en:Глава 02
00:17:16.167 : en:Глава 03
00:26:19.042 : en:Глава 04
00:38:57.458 : en:Глава 05
00:47:56.875 : en:Глава 06
01:02:20.333 : en:Глава 07
01:08:20.042 : en:Глава 08
01:18:20.708 : en:Глава 09
01:24:47.833 : en:Глава 10
01:30:45.000 : en:Глава 11
01:43:15.792 : en:Глава 12

Этот торрент недоступен для скачивания без регистрации, однако доступен по публичной magnet-ссылке (источники с публичных трекеров). Перед использованием ссылки прочтите, пожалуйста Пользовательское соглашение, а также как можно дольше оставайтесь на раздаче! Для того, чтобы скачать сам торрент-файл (который видит больше источников), а также для того, чтобы поблагодарить релизера, вам необходимо зарегистрироваться. Если регистрироваться лень - вы можете также попробовать скачать релиз по нашим партнерским ссылкам ниже. Кроме того, зарегистрированным пользователям не показывается всплывающая реклама при скачивании.

[underver.se].t222835.torrent
Трекер: Зарегистрирован   [ 27.09.2021 03:18 ]  
Статус: проверено (by FiNikola at 27.09.2021 03:18)
Поблагодарили: 1 человек
Тип торрента: публичный - доступные источники с открытых трекеров: 
Размер: 3.32 GB (занимает 0.76 DVDR, для записи нужно 1 болванка DVDR/RW)
 
 

Яндекс.Метрика powered by Sphinx


В Н И М А Н И Е
Сайт не распространяет и не хранит электронные версии произведений, а лишь бесплатно и без коммерческой выгоды (не требуя взамен платы,
SMS и т.д.) предоставляет доступ к создаваемому пользователями каталогу ссылок на торрент-файлы, которые содержат только списки хеш-сумм.
Убедительная просьба с жалобами обращаться напрямую к пользователю, разместившему торрент файл.

Вверх