Loading...
Error

Никто не уйдёт живым / No One Gets Out Alive (Сантьяго Менгини) [2021 г., ужасы, WEB-DL-HEVC 1080p HDR] Dub (Netflix) + Original + Sub

Статистика раздачи
Размер:  4.64 GB   |    Зарегистрирован:  1 год   |    Скачан:  10 раз

Полного источника не было: 6 месяцев

Сидов:  0  |  0 KB/s  ]   Личеров:  0  |  0 KB/s  ]

* - сиды/пиры с внешних источников

   
 
Автор Сообщение

makkol Пол:Муж

29-Сен-2021 10:41

Никто не уйдёт живым / No One Gets Out Alive


Год выпуска: 2021
Жанр: ужасы
Производство: Великобритания [The Imaginarium Studios]
Режиссер: Сантьяго Менгини
В ролях: Марк Менчака, Кристина Родло, Виктория Олкок, Дэвид Баррера, Джоана Борха, Дэвид Фильоли, Митчелл Маллен, Джефф Мырза
Сюжет фильма:
Эмбер надрывается на нескольких работах, чтобы приблизить исполнение своей американской мечты. Героиня снимает комнату в пансионате, а спустя некоторое время начинает замечать, что за ней постоянно кто-то наблюдает. Она слышит странные звуки и ощущает, как в воздухе разливается необъяснимое зло.

  • Мировая премьера: 29 сентября 2021


Качество видео: WEB-DLRip 1080p

Продолжительность: 01:27:16
Формат: MKV
Видео: MPEG-H HEVC HDR, 1920x1080 (16:9), 24.000 fps, 5652 kbps
Аудио #1: русский, дублированный (Netflix), E-AC3 5.1, 48 kHz, 640 kbps
Аудио #2: русский, дублированный (Netflix), AC3 5.1, 48 kHz, 640 kbps
Аудио #3: английский, оригинал, E-AC3+Atmos 5.1, 48 kHz, 768 kbps
Субтитры: русские (Forced, full), украинские (Full), английские вшитые отключаемые

Релиз:

Код:

General
Unique ID : 338899948076623585376760885512297434391 (0xFEF5C17D1AF2C54266802D71D8BACD17)
Complete name : No.One.Gets.Ou.Alive.2021.WEB-DL.1080p.HDR.seleZen.mkv
Format : Matroska
Format version : Version 4
File size : 4.64 GiB
Duration : 1 h 27 min
Overall bit rate : 7 605 kb/s
Movie name : No One Gets Out Alive 2021 from seleZen
Encoded date : UTC 2021-09-29 07:29:15
Writing application : mkvmerge v59.0.0 ('Shining Star') 64-bit
Writing library : libebml v1.4.2 + libmatroska v1.6.4

Video
ID : 1
Format : HEVC
Format/Info : High Efficiency Video Coding
Format profile : Main [email protected]@Main
HDR format : SMPTE ST 2086, HDR10 compatible
Codec ID : V_MPEGH/ISO/HEVC
Duration : 1 h 25 min
Bit rate : 5 652 kb/s
Width : 1 920 pixels
Height : 1 080 pixels
Display aspect ratio : 16:9
Frame rate mode : Constant
Frame rate : 24.000 FPS
Color space : YUV
Chroma subsampling : 4:2:0 (Type 2)
Bit depth : 10 bits
Bits/(Pixel*Frame) : 0.114
Stream size : 3.39 GiB (73%)
Language : English
Default : Yes
Forced : No
Color range : Limited
Color primaries : BT.2020
Transfer characteristics : PQ
Matrix coefficients : BT.2020 non-constant
Mastering display color primaries : Display P3
Mastering display luminance : min: 0.0001 cd/m2, max: 1000 cd/m2
Maximum Content Light Level : 988 cd/m2
Maximum Frame-Average Light Level : 144 cd/m2

Audio #1
ID : 2
Format : E-AC-3
Format/Info : Enhanced AC-3
Commercial name : Dolby Digital Plus
Codec ID : A_EAC3
Duration : 1 h 27 min
Bit rate mode : Constant
Bit rate : 640 kb/s
Channel(s) : 6 channels
Channel layout : L R C LFE Ls Rs
Sampling rate : 48.0 kHz
Frame rate : 31.250 FPS (1536 SPF)
Compression mode : Lossy
Stream size : 400 MiB (8%)
Title : Netflix
Language : Russian
Service kind : Complete Main
Default : Yes
Forced : Yes

Audio #2
ID : 3
Format : AC-3
Format/Info : Audio Coding 3
Commercial name : Dolby Digital
Codec ID : A_AC3
Duration : 1 h 27 min
Bit rate mode : Constant
Bit rate : 640 kb/s
Channel(s) : 6 channels
Channel layout : L R C LFE Ls Rs
Sampling rate : 48.0 kHz
Frame rate : 31.250 FPS (1536 SPF)
Compression mode : Lossy
Stream size : 400 MiB (8%)
Title : Netflix
Language : Russian
Service kind : Complete Main
Default : No
Forced : No

Audio #3
ID : 4
Format : E-AC-3 JOC
Format/Info : Enhanced AC-3 with Joint Object Coding
Commercial name : Dolby Digital Plus with Dolby Atmos
Codec ID : A_EAC3
Duration : 1 h 27 min
Bit rate mode : Constant
Bit rate : 768 kb/s
Channel(s) : 6 channels
Channel layout : L R C LFE Ls Rs
Sampling rate : 48.0 kHz
Frame rate : 31.250 FPS (1536 SPF)
Compression mode : Lossy
Stream size : 480 MiB (10%)
Title : Original
Language : English
Service kind : Complete Main
Default : No
Forced : No
Complexity index : 16
Number of dynamic objects : 15
Bed channel count : 1 channel
Bed channel configuration : LFE

Text #1
ID : 5
Format : UTF-8
Codec ID : S_TEXT/UTF8
Codec ID/Info : UTF-8 Plain Text
Duration : 1 h 25 min
Bit rate : 8 b/s
Count of elements : 133
Stream size : 5.20 KiB (0%)
Title : Forced
Language : Russian
Default : Yes
Forced : Yes

Text #2
ID : 6
Format : UTF-8
Codec ID : S_TEXT/UTF8
Codec ID/Info : UTF-8 Plain Text
Duration : 1 h 25 min
Bit rate : 39 b/s
Count of elements : 625
Stream size : 24.9 KiB (0%)
Title : Full
Language : Russian
Default : No
Forced : No

Text #3
ID : 7
Format : UTF-8
Codec ID : S_TEXT/UTF8
Codec ID/Info : UTF-8 Plain Text
Duration : 1 h 25 min
Bit rate : 41 b/s
Count of elements : 639
Stream size : 25.8 KiB (0%)
Title : Full
Language : Ukrainian
Default : No
Forced : No

Text #4
ID : 8
Format : UTF-8
Codec ID : S_TEXT/UTF8
Codec ID/Info : UTF-8 Plain Text
Duration : 1 h 15 min
Bit rate : 5 b/s
Count of elements : 115
Stream size : 2.79 KiB (0%)
Title : Forced
Language : English
Default : No
Forced : No

Text #5
ID : 9
Format : UTF-8
Codec ID : S_TEXT/UTF8
Codec ID/Info : UTF-8 Plain Text
Duration : 1 h 24 min
Bit rate : 44 b/s
Count of elements : 1072
Stream size : 27.1 KiB (0%)
Language : English
Default : No
Forced : No

Этот торрент недоступен для скачивания без регистрации, однако доступен по публичной magnet-ссылке (источники с публичных трекеров). Перед использованием ссылки прочтите, пожалуйста Пользовательское соглашение, а также как можно дольше оставайтесь на раздаче! Для того, чтобы скачать сам торрент-файл (который видит больше источников), а также для того, чтобы поблагодарить релизера, вам необходимо зарегистрироваться. Если регистрироваться лень - вы можете также попробовать скачать релиз по нашим партнерским ссылкам ниже. Кроме того, зарегистрированным пользователям не показывается всплывающая реклама при скачивании.

[underver.se].t223041.torrent
Трекер: Зарегистрирован   [ 29.09.2021 10:41 ]  
Статус: проверено (by makkol at 29.09.2021 10:42)
Поблагодарили: пока никто не поблагодарил...
Тип торрента: публичный - доступные источники с открытых трекеров: 
Размер: 4.64 GB (занимает 1.06 DVDR, для записи нужно 2 болванки DVDR/RW)
 
 

Яндекс.Метрика powered by Sphinx


В Н И М А Н И Е
Сайт не распространяет и не хранит электронные версии произведений, а лишь бесплатно и без коммерческой выгоды (не требуя взамен платы,
SMS и т.д.) предоставляет доступ к создаваемому пользователями каталогу ссылок на торрент-файлы, которые содержат только списки хеш-сумм.
Убедительная просьба с жалобами обращаться напрямую к пользователю, разместившему торрент файл.

Вверх