Loading...
Error

Никто не уйдёт живым / No One Gets Out Alive (Сантьяго Менгини) [2021 г., ужасы, WEB-DLRip-AVC] Dub (Netflix) + Original + Sub

Статистика раздачи
Размер:  1.76 GB   |    Зарегистрирован:  1 год   |    Скачан:  3 раза

Полного источника не было: 4 месяца 11 дней

Сидов:  0  |  0 KB/s  ]   Личеров:  0  |  0 KB/s  ]

* - сиды/пиры с внешних источников

   
 
Автор Сообщение

FiNikola Пол:Муж

29-Сен-2021 23:49

Никто не уйдёт живым / No One Gets Out Alive
Название: Никто не уйдёт живым
Оригинальное название: No One Gets Out Alive
Год выхода: 2021
Жанр: Ужасы
Режиссер-постановщик: Сантьяго Менгини
В главных ролях: Марк Менчака, Кристина Родло, Виктория Олкок, Дэвид Баррера, Джоана Борха, Дэвид Фильоли, Митчелл Маллен, Джефф Мырза

Описание:
Эмбер надрывается на нескольких работах, чтобы приблизить исполнение своей американской мечты. Героиня снимает комнату в пансионате, а спустя некоторое время начинает замечать, что за ней постоянно кто-то наблюдает. Она слышит странные звуки и ощущает, как в воздухе разливается необъяснимое зло.

Страна: Великобритания
Студия: The Imaginarium Studios
Продолжительность: 01:27:16
Перевод: Дублированный | Netflix
Субтитры: Русские (Forced, full), украинские (Full), английские

Формат: Matroska
Качество: WEB-DLRip-AVC
Видео: 1024x426 at 24.000 fps, [email protected], ~2000 kbps, 0.191 bpp
Аудио 1: AC3, 6 ch, ~448 kbps - | Русский | -
Аудио 2: AC3, 6 ch, ~448 kbps - | Английский | -
Формат субтитров: softsub (SRT)
x264 info: frame I:981 Avg QP:13.78 size: 66167
x264 info: frame P:20840 Avg QP:16.64 size: 24019
x264 info: frame B:103863 Avg QP:18.81 size: 7130

General
Unique ID : 45281753970815316822059412313653447267 (0x2210F2D6D6AE81CC172C396462310A63)
Complete name : G:No.One.Gets.Out.Alive.(2021).WEB-DLRip-AVC.mkv
Format : Matroska
Format version : Version 4
File size : 1.76 GiB
Duration : 1 h 27 min
Overall bit rate : 2 893 kb/s
Encoded date : UTC 2021-09-29 09:59:22
Writing application : mkvmerge v61.0.0 ('So') 64-bit
Writing library : libebml v1.4.2 + libmatroska v1.6.4
Cover : Yes
Attachments : Cover.jpg / Cover 2.jpg

Video
ID : 1
Format : AVC
Format/Info : Advanced Video Codec
Format profile : [email protected]
Format settings : CABAC / 12 Ref Frames
Format settings, CABAC : Yes
Format settings, Reference : 12 frames
Codec ID : V_MPEG4/ISO/AVC
Duration : 1 h 27 min
Bit rate : 2 000 kb/s
Width : 1 024 pixels
Height : 426 pixels
Display aspect ratio : 2.40:1
Frame rate mode : Constant
Frame rate : 24.000 FPS
Color space : YUV
Chroma subsampling : 4:2:0
Bit depth : 8 bits
Scan type : Progressive
Bits/(Pixel*Frame) : 0.191
Stream size : 1.22 GiB (69%)
Title : -=DoMiNo=-
Writing library : x264 core 161 r3020 d198931
Encoding settings : cabac=1 / ref=12 / deblock=1:-3:-3 / analyse=0x3:0x133 / me=umh / subme=9 / psy=1 / psy_rd=1.00:0.05 / mixed_ref=1 / me_range=32 / chroma_me=1 / trellis=2 / 8x8dct=1 / cqm=0 / deadzone=21,11 / fast_pskip=0 / chroma_qp_offset=-3 / threads=24 / lookahead_threads=3 / sliced_threads=0 / nr=0 / decimate=0 / interlaced=0 / bluray_compat=0 / constrained_intra=0 / bframes=11 / b_pyramid=2 / b_adapt=2 / b_bias=0 / direct=3 / weightb=1 / open_gop=0 / weightp=2 / keyint=240 / keyint_min=24 / scenecut=40 / intra_refresh=0 / rc=2pass / mbtree=0 / bitrate=2000 / ratetol=1.0 / qcomp=0.60 / qpmin=0 / qpmax=69 / qpstep=4 / cplxblur=20.0 / qblur=0.5 / ip_ratio=1.40 / pb_ratio=1.30 / aq=1:1.00
Language : English
Default : Yes
Forced : No

Audio #1
ID : 2
Format : AC-3
Format/Info : Audio Coding 3
Commercial name : Dolby Digital
Codec ID : A_AC3
Duration : 1 h 27 min
Bit rate mode : Constant
Bit rate : 448 kb/s
Channel(s) : 6 channels
Channel layout : L R C LFE Ls Rs
Sampling rate : 48.0 kHz
Frame rate : 31.250 FPS (1536 SPF)
Compression mode : Lossy
Stream size : 280 MiB (15%)
Title : DUB
Language : Russian
Service kind : Complete Main
Default : Yes
Forced : Yes

Audio #2
ID : 3
Format : AC-3
Format/Info : Audio Coding 3
Commercial name : Dolby Digital
Codec ID : A_AC3
Duration : 1 h 27 min
Bit rate mode : Constant
Bit rate : 448 kb/s
Channel(s) : 6 channels
Channel layout : L R C LFE Ls Rs
Sampling rate : 48.0 kHz
Frame rate : 31.250 FPS (1536 SPF)
Compression mode : Lossy
Stream size : 280 MiB (15%)
Language : English
Service kind : Complete Main
Default : No
Forced : No

Text #1
ID : 4
Format : UTF-8
Codec ID : S_TEXT/UTF8
Codec ID/Info : UTF-8 Plain Text
Duration : 1 h 25 min
Bit rate : 8 b/s
Count of elements : 133
Stream size : 5.20 KiB (0%)
Title : Forced
Language : Russian
Default : No
Forced : Yes

Text #2
ID : 5
Format : UTF-8
Codec ID : S_TEXT/UTF8
Codec ID/Info : UTF-8 Plain Text
Duration : 1 h 25 min
Bit rate : 39 b/s
Count of elements : 625
Stream size : 24.9 KiB (0%)
Title : Full
Language : Russian
Default : No
Forced : No

Text #3
ID : 6
Format : UTF-8
Codec ID : S_TEXT/UTF8
Codec ID/Info : UTF-8 Plain Text
Duration : 1 h 25 min
Bit rate : 41 b/s
Count of elements : 639
Stream size : 25.8 KiB (0%)
Title : Full
Language : Ukrainian
Default : No
Forced : No

Text #4
ID : 7
Format : UTF-8
Codec ID : S_TEXT/UTF8
Codec ID/Info : UTF-8 Plain Text
Duration : 1 h 15 min
Bit rate : 5 b/s
Count of elements : 115
Stream size : 2.79 KiB (0%)
Title : Forced
Language : English
Default : No
Forced : No

Text #5
ID : 8
Format : UTF-8
Codec ID : S_TEXT/UTF8
Codec ID/Info : UTF-8 Plain Text
Duration : 1 h 24 min
Bit rate : 44 b/s
Count of elements : 1072
Stream size : 27.1 KiB (0%)
Language : English
Default : No
Forced : No

Этот торрент недоступен для скачивания без регистрации, однако доступен по публичной magnet-ссылке (источники с публичных трекеров). Перед использованием ссылки прочтите, пожалуйста Пользовательское соглашение, а также как можно дольше оставайтесь на раздаче! Для того, чтобы скачать сам торрент-файл (который видит больше источников), а также для того, чтобы поблагодарить релизера, вам необходимо зарегистрироваться. Если регистрироваться лень - вы можете также попробовать скачать релиз по нашим партнерским ссылкам ниже. Кроме того, зарегистрированным пользователям не показывается всплывающая реклама при скачивании.

[underver.se].t223091.torrent
Трекер: Зарегистрирован   [ 29.09.2021 23:49 ]  
Статус: проверено (by FiNikola at 29.09.2021 23:49)
Поблагодарили: пока никто не поблагодарил...
Тип торрента: публичный - доступные источники с открытых трекеров: 
Размер: 1.76 GB (занимает 0.4 DVDR, для записи нужно 1 болванка DVDR/RW)
 
 

03-Ноя-2021 17:51

Топик был перенесен из форума Зарубежное кино AVC в форум Зарубежное кино [DVDRip, Low-Res HDRip, и т.д.]


cheloweck.dojdya
 

Яндекс.Метрика powered by Sphinx


В Н И М А Н И Е
Сайт не распространяет и не хранит электронные версии произведений, а лишь бесплатно и без коммерческой выгоды (не требуя взамен платы,
SMS и т.д.) предоставляет доступ к создаваемому пользователями каталогу ссылок на торрент-файлы, которые содержат только списки хеш-сумм.
Убедительная просьба с жалобами обращаться напрямую к пользователю, разместившему торрент файл.

Вверх