Loading...
Error

Время / Old (М. Найт Шьямалан) [2021 г., триллер, драма, фантастика, HDRip-AVC] Dub (iTunes) + Original + Sub

Статистика раздачи
Размер:  2,49 GB   |    Зарегистрирован:  8 дней   |    Скачан:  13 раз
Сидов:  1  |  0 KB/s  ]   Личеров:  0  |  0 KB/s  ]

* - сиды/пиры с внешних источников

   
 
Автор Сообщение

makkol Пол:Муж

13-Окт-2021 21:31

Время / Old
«Жизнь — лишь вопрос времени»


Год выпуска: 2021
Жанр: триллер, драма, фантастика
Производство: США [Blinding Edge Pictures, Universal Pictures]
Режиссер: М. Найт Шьямалан
В ролях: Гаэль Гарсиа Берналь, Вики Крипс, Руфус Сьюэлл, Кен Люн, Никки Амука-Бёрд, Эбби Ли, Аарон Пьер, Алекс Вулф, Эмбет Дэвидц, Элайза Сканлен
Сюжет фильма:
На отдаленном безлюдном пляже отдыхает группа из тринадцати человек. На побережье тропиков они находят мертвую женщину и с этого момента начинают происходить паранормальные вещи. Теперь идиллия безмятежного отдыха сменяется сплошным чудовищным кошмаром. Люди с ужасающей скоростью начинают стариться. Так, шестилетний ребенок в мгновение ока становится взрослым мужчиной. Так же стремительно отдыхающие начинают сходить с ума из-за того, что больше не узнают самих себя. Но кто стоит за всем этим ужасом и почему выбрал именно этих людей? Основано на графическом романе «Замок из песка» П.О. Леви.

  • Мировая премьера: 21 июля 2021
  • Российская премьера: 22 июля 2021


Качество видео: HDRip-AVC

Продолжительность: 01:48:27
Формат: MKV
Видео: MPEG-4 AVC, 1024x428 (2.40:1), 23.976 fps, 2520 kbps
Аудио #1: русский, дублированный (iTunes), AC3 5.1, 48 kHz, 384 kbps
Аудио #2: английский, оригинал, AC3 5.1, 48 kHz, 384 kbps
Субтитры: русские (Forced, Full), английские вшитые отключаемые

Код:

Общее
Уникальный идентификатор : 139552217973010576942053869757338947726 (0x68FCC78FEEC086F30D0B681F724B108E)
Полное имя : Время.2021.HDRip-AVC_JNS82.mkv
Формат : Matroska
Версия формата : Version 4
Размер файла : 2,49 Гбайт
Продолжительность : 1 ч. 48 м.
Общий поток : 3 289 Кбит/сек
Название фильма : Время.2021.HDRip-AVC_JNS82
Дата кодирования : UTC 2021-10-13 15:54:41
Программа кодирования : mkvmerge v59.0.0 ('Shining Star') 64-bit
Библиотека кодирования : libebml v1.4.2 + libmatroska v1.6.4

Видео
Идентификатор : 1
Формат : AVC
Формат/Информация : Advanced Video Codec
Профиль формата : High@L4.1
Настройки формата : CABAC / 11 Ref Frames
Параметр CABAC формата : Да
Параметр RefFrames формата : 11 кадров
Идентификатор кодека : V_MPEG4/ISO/AVC
Продолжительность : 1 ч. 48 м.
Битрейт : 2 520 Кбит/сек
Ширина : 1 024 пикселя
Высота : 428 пикселей
Соотношение сторон : 2,40:1
Режим частоты кадров : Постоянный
Частота кадров : 23,976 (24000/1001) кадра/сек
Цветовое пространство : YUV
Субдискретизация насыщенности : 4:2:0
Битовая глубина : 8 бит
Тип развёртки : Прогрессивная
Бит/(Пиксели*Кадры) : 0.240
Размер потока : 1,91 Гбайт (77%)
Библиотека кодирования : x264 core 157 r2958 57baac4
Настройки программы : cabac=1 / ref=11 / deblock=1:-3:-3 / analyse=0x3:0x113 / me=umh / subme=9 / psy=1 / psy_rd=1.00:0.05 / mixed_ref=1 / me_range=32 / chroma_me=1 / trellis=1 / 8x8dct=1 / cqm=0 / deadzone=21,11 / fast_pskip=0 / chroma_qp_offset=-3 / threads=8 / lookahead_threads=2 / sliced_threads=0 / nr=0 / decimate=0 / interlaced=0 / bluray_compat=0 / constrained_intra=0 / bframes=11 / b_pyramid=2 / b_adapt=2 / b_bias=0 / direct=3 / weightb=1 / open_gop=0 / weightp=2 / keyint=240 / keyint_min=24 / scenecut=40 / intra_refresh=0 / rc=2pass / mbtree=0 / bitrate=2520 / ratetol=1.0 / qcomp=0.60 / qpmin=0 / qpmax=69 / qpstep=4 / cplxblur=20.0 / qblur=0.5 / ip_ratio=1.40 / pb_ratio=1.30 / aq=1:1.00
Язык : English
Default : Да
Forced : Нет
Цветовой диапазон : Limited
Основные цвета : BT.709
Коэффициенты матрицы : BT.709

Аудио #1
Идентификатор : 2
Формат : AC-3
Формат/Информация : Audio Coding 3
Коммерческое название : Dolby Digital
Идентификатор кодека : A_AC3
Продолжительность : 1 ч. 48 м.
Вид битрейта : Постоянный
Битрейт : 384 Кбит/сек
Каналы : 6 каналов
Channel layout : L R C LFE Ls Rs
Частота : 48,0 КГц
Частота кадров : 31,250 кадров/сек (1536 SPF)
Метод сжатия : С потерями
Размер потока : 298 Мбайт (12%)
Заголовок : iTunes
Язык : Russian
Service kind : Complete Main
Default : Да
Forced : Нет

Аудио #2
Идентификатор : 3
Формат : AC-3
Формат/Информация : Audio Coding 3
Коммерческое название : Dolby Digital
Идентификатор кодека : A_AC3
Продолжительность : 1 ч. 48 м.
Вид битрейта : Постоянный
Битрейт : 384 Кбит/сек
Каналы : 6 каналов
Channel layout : L R C LFE Ls Rs
Частота : 48,0 КГц
Частота кадров : 31,250 кадров/сек (1536 SPF)
Метод сжатия : С потерями
Размер потока : 298 Мбайт (12%)
Язык : English
Service kind : Complete Main
Default : Нет
Forced : Нет

Текст #1
Идентификатор : 4
Формат : UTF-8
Идентификатор кодека : S_TEXT/UTF8
Идентификатор кодека/Информация : UTF-8 Plain Text
Продолжительность : 1 ч. 42 м.
Битрейт : 0 бит/сек
Count of elements : 4
Размер потока : 93,0 байт (0%)
Заголовок : [forced]
Язык : Russian
Default : Да
Forced : Нет

Текст #2
Идентификатор : 5
Формат : UTF-8
Идентификатор кодека : S_TEXT/UTF8
Идентификатор кодека/Информация : UTF-8 Plain Text
Продолжительность : 1 ч. 41 м.
Битрейт : 90 бит/сек
Count of elements : 1403
Размер потока : 66,8 Кбайт (0%)
Заголовок : [full[focs]]
Язык : Russian
Default : Нет
Forced : Нет

Текст #3
Идентификатор : 6
Формат : UTF-8
Идентификатор кодека : S_TEXT/UTF8
Идентификатор кодека/Информация : UTF-8 Plain Text
Продолжительность : 1 ч. 39 м.
Битрейт : 53 бит/сек
Count of elements : 1418
Размер потока : 39,3 Кбайт (0%)
Язык : English
Default : Нет
Forced : Нет

Меню
00:00:00.000 : :Chapter 01
00:05:50.100 : :Chapter 02
00:13:46.617 : :Chapter 03
00:18:35.448 : :Chapter 04
00:23:05.676 : :Chapter 05
00:28:33.045 : :Chapter 06
00:32:43.420 : :Chapter 07
00:38:01.654 : :Chapter 08
00:43:25.895 : :Chapter 09
00:47:54.371 : :Chapter 10
00:53:05.808 : :Chapter 11
01:01:32.939 : :Chapter 12
01:05:11.366 : :Chapter 13
01:08:52.337 : :Chapter 14
01:12:44.068 : :Chapter 15
01:18:59.568 : :Chapter 16
01:23:29.796 : :Chapter 17
01:29:13.223 : :Chapter 18
01:34:26.619 : :Chapter 19
01:41:18.281 : :Chapter 20

Этот торрент недоступен для скачивания без регистрации, однако доступен по публичной magnet-ссылке (источники с публичных трекеров). Перед использованием ссылки прочтите, пожалуйста Пользовательское соглашение, а также как можно дольше оставайтесь на раздаче! Для того, чтобы скачать сам торрент-файл (который видит больше источников), а также для того, чтобы поблагодарить релизера, вам необходимо зарегистрироваться. Если регистрироваться лень - вы можете также попробовать скачать релиз по нашим партнерским ссылкам ниже. Кроме того, зарегистрированным пользователям не показывается всплывающая реклама при скачивании.

[underver.se].t224521.torrent
Трекер: Зарегистрирован   [ 13.10.2021 21:31 ]  

Статус: проверено (by makkol at 13.10.2021 21:32)
Поблагодарили: 1 человек
Тип торрента: публичный - доступные источники с открытых трекеров: 
Размер: 2,49 GB (занимает 0,57 DVDR, для записи нужно 1 болванка DVDR/RW)
 
 
Похожие темы
Форум Тема Автор Торрент Отв. Посл. сооб.
Зарубежное кино [DVDRip, Low-Res HDRip, и т.д.] Время / Old (М. Найт Шьямалан) [2021 г., триллер, драма, фантастика, HDRip] Dub (iTunes) + Sub makkol
1 | 0

1 | 212

20

14.10.2021 10:10

Зарубежное кино [DVDRip, Low-Res HDRip, и т.д.] Время / Old (М. Найт Шьямалан) [2021 г., триллер, драма, фантастика, HDRip-AVC] Dub (iTunes) + Sub makkol
191 | 2

1 | 211

20

14.10.2021 20:05

Зарубежное кино [DVD / HDDVD / BD / Remux] Время / Old (М. Найт Шьямалан) [2021, Триллер, драма, фантастика, BDRemux 1080p] Dub (iTunes) + Original + Sub (Rus/Eng) Konin
11 | 4

0 | 166

7

13.10.2021 18:35

Зарубежное кино [HDDVDRip / BDRip / WEB-DL / HDTV 1080/720р] Время / Old (М. Найт Шьямалан) [2021, Триллер, драма, фантастика, BDRip 720p] Dub (iTunes) + Original + Sub (Rus/Eng) Konin
51 | 7

0 | 177

10

13.10.2021 18:34

Зарубежное кино [HDDVDRip / BDRip / WEB-DL / HDTV 1080/720р] Время / Old (М. Найт Шьямалан) [2021, Триллер, драма, фантастика, BDRip 1080p] Dub (iTunes) + Original + Sub (Rus/Eng) Konin
58 | 37

0 | 179

12

13.10.2021 18:34

Зарубежное кино [HDDVDRip / BDRip / WEB-DL / HDTV 1080/720р] Время / Old (М. Найт Шьямалан) [2021 г., триллер, драма, фантастика, WEB-DL-HEVC 2160p HDR] Dub (iTunes) + Original + Sub makkol
136 | 20

0 | 304

14

13.10.2021 21:38

T Новинки кино [CAMRip, TS, DVDScr, WP, TC] Время / Old (М. Найт Шьямалан) [2021 г., триллер, драма, детектив, TS] DVO (Колобок) makkol
15 | 0

0 | 769

49

27.07.2021 21:44

T Новинки кино [CAMRip, TS, DVDScr, WP, TC] Время / Old (М. Найт Шьямалан) [2021 г., триллер, драма, детектив, TS 720p] DVO (Колобок) makkol
1 | 0

0 | 999

84

27.07.2021 21:47


Яндекс.Метрика powered by Sphinx


В Н И М А Н И Е
Сайт не распространяет и не хранит электронные версии произведений, а лишь бесплатно и без коммерческой выгоды (не требуя взамен платы,
SMS и т.д.) предоставляет доступ к создаваемому пользователями каталогу ссылок на торрент-файлы, которые содержат только списки хеш-сумм.
Убедительная просьба с жалобами обращаться напрямую к пользователю, разместившему торрент файл.

Вверх