Loading...
Error

Время / Old (М. Найт Шьямалан) [2021 г., триллер, драма, фантастика, WEB-DL-HEVC 2160p HDR] Dub (iTunes) + Original + Sub

Статистика раздачи
Размер:  11,76 GB   |    Зарегистрирован:  8 дней   |    Скачан:  14 раз

Полного источника не было: 9 часов

Сидов:  0  |  0 KB/s  ]   Личеров:  0  |  0 KB/s  ]

* - сиды/пиры с внешних источников

   
 
Автор Сообщение

makkol Пол:Муж

13-Окт-2021 21:38

Время / Old
«Жизнь — лишь вопрос времени»


Год выпуска: 2021
Жанр: триллер, драма, фантастика
Производство: США [Blinding Edge Pictures, Universal Pictures]
Режиссер: М. Найт Шьямалан
В ролях: Гаэль Гарсиа Берналь, Вики Крипс, Руфус Сьюэлл, Кен Люн, Никки Амука-Бёрд, Эбби Ли, Аарон Пьер, Алекс Вулф, Эмбет Дэвидц, Элайза Сканлен
Сюжет фильма:
На отдаленном безлюдном пляже отдыхает группа из тринадцати человек. На побережье тропиков они находят мертвую женщину и с этого момента начинают происходить паранормальные вещи. Теперь идиллия безмятежного отдыха сменяется сплошным чудовищным кошмаром. Люди с ужасающей скоростью начинают стариться. Так, шестилетний ребенок в мгновение ока становится взрослым мужчиной. Так же стремительно отдыхающие начинают сходить с ума из-за того, что больше не узнают самих себя. Но кто стоит за всем этим ужасом и почему выбрал именно этих людей? Основано на графическом романе «Замок из песка» П.О. Леви.

  • Мировая премьера: 21 июля 2021
  • Российская премьера: 22 июля 2021


Качество видео: WEB-DL 2160p

Продолжительность: 01:48:27
Формат: MKV
Видео: MPEG-H HEVC HDR10, 3840x1606, 23.976 fps, 14.5 Mbps
Аудио #1: русский, дублированный (iTunes), AC3 5.1, 48 kHz, 384 kbps
Аудио #2: английский, оригинал, AC3 5.1, 48 kHz, 640 kbps
Субтитры: русские (Forced, Full), английские вшитые отключаемые

Релиз:

Код:

General
Unique ID : 337366084204370793513662412520775657948 (0xFDCE582938A3BF474A9FC1D3329EA9DC)
Complete name : Old.2021.WEB-DL.2160p.HDR.seleZen.mkv
Format : Matroska
Format version : Version 4
File size : 11.8 GiB
Duration : 1 h 48 min
Overall bit rate : 15.5 Mb/s
Movie name : Old 2021 from seleZen
Encoded date : UTC 2021-10-13 14:43:45
Writing application : mkvmerge v59.0.0 ('Shining Star') 64-bit
Writing library : libebml v1.4.2 + libmatroska v1.6.4

Video
ID : 1
Format : HEVC
Format/Info : High Efficiency Video Coding
Format profile : Main 10@L5@High
HDR format : SMPTE ST 2086, HDR10 compatible
Codec ID : V_MPEGH/ISO/HEVC
Duration : 1 h 48 min
Bit rate : 14.5 Mb/s
Width : 3 840 pixels
Height : 1 606 pixels
Display aspect ratio : 2.40:1
Frame rate mode : Constant
Frame rate : 23.976 FPS
Color space : YUV
Chroma subsampling : 4:2:0 (Type 2)
Bit depth : 10 bits
Bits/(Pixel*Frame) : 0.098
Stream size : 11.0 GiB (93%)
Language : English
Default : Yes
Forced : No
Color range : Limited
Color primaries : BT.2020
Transfer characteristics : PQ
Matrix coefficients : BT.2020 non-constant
Mastering display color primaries : BT.2020
Mastering display luminance : min: 0.0050 cd/m2, max: 1000 cd/m2
Maximum Content Light Level : 430 cd/m2
Maximum Frame-Average Light Level : 108 cd/m2

Audio #1
ID : 2
Format : AC-3
Format/Info : Audio Coding 3
Commercial name : Dolby Digital
Codec ID : A_AC3
Duration : 1 h 48 min
Bit rate mode : Constant
Bit rate : 384 kb/s
Channel(s) : 6 channels
Channel layout : L R C LFE Ls Rs
Sampling rate : 48.0 kHz
Frame rate : 31.250 FPS (1536 SPF)
Compression mode : Lossy
Stream size : 298 MiB (2%)
Title : iTunes
Language : Russian
Service kind : Complete Main
Default : Yes
Forced : Yes

Audio #2
ID : 3
Format : AC-3
Format/Info : Audio Coding 3
Commercial name : Dolby Digital
Codec ID : A_AC3
Duration : 1 h 48 min
Bit rate mode : Constant
Bit rate : 640 kb/s
Channel(s) : 6 channels
Channel layout : L R C LFE Ls Rs
Sampling rate : 48.0 kHz
Frame rate : 31.250 FPS (1536 SPF)
Compression mode : Lossy
Stream size : 496 MiB (4%)
Title : Original
Language : English
Service kind : Complete Main
Default : No
Forced : No

Text #1
ID : 4
Format : UTF-8
Codec ID : S_TEXT/UTF8
Codec ID/Info : UTF-8 Plain Text
Duration : 1 h 42 min
Bit rate : 0 b/s
Count of elements : 4
Stream size : 93.0 Bytes (0%)
Title : Forced
Language : Russian
Default : Yes
Forced : Yes

Text #2
ID : 5
Format : UTF-8
Codec ID : S_TEXT/UTF8
Codec ID/Info : UTF-8 Plain Text
Duration : 1 h 42 min
Bit rate : 81 b/s
Count of elements : 1290
Stream size : 60.8 KiB (0%)
Title : Full
Language : Russian
Default : No
Forced : No

Text #3
ID : 6
Format : UTF-8
Codec ID : S_TEXT/UTF8
Codec ID/Info : UTF-8 Plain Text
Duration : 1 h 39 min
Bit rate : 52 b/s
Count of elements : 1201
Stream size : 38.3 KiB (0%)
Title : Full
Language : English
Default : No
Forced : No

Text #4
ID : 7
Format : UTF-8
Codec ID : S_TEXT/UTF8
Codec ID/Info : UTF-8 Plain Text
Duration : 1 h 43 min
Bit rate : 58 b/s
Count of elements : 1415
Stream size : 44.7 KiB (0%)
Title : SDH
Language : English
Default : No
Forced : No

Menu
00:00:00.000 : Chapter 01
00:05:50.100 : Chapter 02
00:13:46.617 : Chapter 03
00:18:35.448 : Chapter 04
00:23:05.676 : Chapter 05
00:28:33.045 : Chapter 06
00:32:43.420 : Chapter 07
00:38:01.654 : Chapter 08
00:43:25.895 : Chapter 09
00:47:54.371 : Chapter 10
00:53:05.808 : Chapter 11
01:01:32.939 : Chapter 12
01:05:11.366 : Chapter 13
01:08:52.337 : Chapter 14
01:12:44.068 : Chapter 15
01:18:59.568 : Chapter 16
01:23:29.796 : Chapter 17
01:29:13.223 : Chapter 18
01:34:26.619 : Chapter 19
01:41:18.281 : Chapter 20

Этот торрент недоступен для скачивания без регистрации, однако доступен по публичной magnet-ссылке (источники с публичных трекеров). Перед использованием ссылки прочтите, пожалуйста Пользовательское соглашение, а также как можно дольше оставайтесь на раздаче! Для того, чтобы скачать сам торрент-файл (который видит больше источников), а также для того, чтобы поблагодарить релизера, вам необходимо зарегистрироваться. Если регистрироваться лень - вы можете также попробовать скачать релиз по нашим партнерским ссылкам ниже. Кроме того, зарегистрированным пользователям не показывается всплывающая реклама при скачивании.

[underver.se].t224522.torrent
Трекер: Зарегистрирован   [ 13.10.2021 21:38 ]  

Статус: проверено (by makkol at 13.10.2021 21:39)
Поблагодарили: пока никто не поблагодарил...
Тип торрента: публичный - доступные источники с открытых трекеров: 
Размер: 11,76 GB (занимает 2,69 DVDR, для записи нужно 3 болванки DVDR/RW)
 
 
Похожие темы
Форум Тема Автор Торрент Отв. Посл. сооб.
Зарубежное кино [DVDRip, Low-Res HDRip, и т.д.] Время / Old (М. Найт Шьямалан) [2021 г., триллер, драма, фантастика, HDRip] Dub (iTunes) + Sub makkol
1 | 0

1 | 212

20

14.10.2021 10:10

Зарубежное кино [DVDRip, Low-Res HDRip, и т.д.] Время / Old (М. Найт Шьямалан) [2021 г., триллер, драма, фантастика, HDRip-AVC] Dub (iTunes) + Sub makkol
191 | 2

1 | 211

20

14.10.2021 20:05

Зарубежное кино [DVDRip, Low-Res HDRip, и т.д.] Время / Old (М. Найт Шьямалан) [2021 г., триллер, драма, фантастика, HDRip-AVC] Dub (iTunes) + Original + Sub makkol
59 | 4

0 | 263

13

13.10.2021 21:31

Зарубежное кино [DVD / HDDVD / BD / Remux] Время / Old (М. Найт Шьямалан) [2021, Триллер, драма, фантастика, BDRemux 1080p] Dub (iTunes) + Original + Sub (Rus/Eng) Konin
11 | 4

0 | 166

7

13.10.2021 18:35

Зарубежное кино [HDDVDRip / BDRip / WEB-DL / HDTV 1080/720р] Время / Old (М. Найт Шьямалан) [2021, Триллер, драма, фантастика, BDRip 720p] Dub (iTunes) + Original + Sub (Rus/Eng) Konin
51 | 7

0 | 177

10

13.10.2021 18:34

Зарубежное кино [HDDVDRip / BDRip / WEB-DL / HDTV 1080/720р] Время / Old (М. Найт Шьямалан) [2021, Триллер, драма, фантастика, BDRip 1080p] Dub (iTunes) + Original + Sub (Rus/Eng) Konin
58 | 37

0 | 179

12

13.10.2021 18:34

T Новинки кино [CAMRip, TS, DVDScr, WP, TC] Время / Old (М. Найт Шьямалан) [2021 г., триллер, драма, детектив, TS] DVO (Колобок) makkol
15 | 0

0 | 769

49

27.07.2021 21:44

T Новинки кино [CAMRip, TS, DVDScr, WP, TC] Время / Old (М. Найт Шьямалан) [2021 г., триллер, драма, детектив, TS 720p] DVO (Колобок) makkol
1 | 0

0 | 999

84

27.07.2021 21:47


Яндекс.Метрика powered by Sphinx


В Н И М А Н И Е
Сайт не распространяет и не хранит электронные версии произведений, а лишь бесплатно и без коммерческой выгоды (не требуя взамен платы,
SMS и т.д.) предоставляет доступ к создаваемому пользователями каталогу ссылок на торрент-файлы, которые содержат только списки хеш-сумм.
Убедительная просьба с жалобами обращаться напрямую к пользователю, разместившему торрент файл.

Вверх