Loading...
Error

Мистериум. Тьма в бутылке / Flaskepost fra P (Ханс Петтер Муланд) [2016 г., детектив, криминал, триллер, BDRip] Dub (iTunes)

Статистика раздачи
Размер:  1,46 GB   |    Зарегистрирован:  8 дней   |    Скачан:  8 раз

Полного источника не было: 5 часов

Сидов:  0  |  0 KB/s  ]   Личеров:  0  |  0 KB/s  ]

* - сиды/пиры с внешних источников

   
 
Автор Сообщение

makkol Пол:Муж

13-Окт-2021 21:57

Мистериум. Тьма в бутылке / Flaskepost fra P


Год выпуска: 2016
Жанр: детектив, криминал, триллер
Производство: Дания , Германия , Швеция , Норвегия [Det Danske Filminstitut, Film i Väst, TV2 Danmark]
Режиссер: Ханс Петтер Муланд
В ролях: Николай Ли Каас, Фарес Фарес, Пол Сверре Валхейм Хаген, Якоб Ульрик Ломанн, Джохэнн Луиз Шмидт, Якоб Офтебро, Сигне Анастассиа Маннов, Сёрен Пильмарк, Михаэль Броструп, Мортен Кирксков, Лотта Андерсен, Бенжамин Киттер, Лаура Бро, Мерседес Кларо Шелин, Армин Роде
Сюжет фильма:
Выброшенная на берег моря бутылка с леденящим душу посланием, написанным восемь лет назад, привлекает внимание особого отдела полиции Копенгагена. За расследование берутся детективы Карл Мёрк и Ассад. Они выходят на след убийцы-психопата и раскрывают жуткую историю похищенных детей, об исчезновении которых никто не заявлял.

  • Мировая премьера: 3 марта 2016


Качество видео: BDRip

Продолжительность: 01:51:29
Формат: AVI
Видео: XviD, 720x304 (2.35:1), 24.000 fps, 1478 kbps
Аудио: русский, дублированный (iTunes), AC3 5.1, 48 kHz, 384 kbps

Код:

Общее
Полное имя                               : Misterium_3_2016_BDRip_by_Dalemake.avi
Формат                                   : AVI
Формат/Информация                        : Audio Video Interleave
Размер файла                             : 1,46 Гбайт
Продолжительность                        : 1 ч. 51 м.
Общий поток                              : 1872 Кбит/сек
Программа кодирования                    : VirtualDubMod 1.5.10.3 | www.virtualdub-fr.org || (build 2550/release)
Библиотека кодирования                   : VirtualDubMod build 2550/release

Видео
Идентификатор                            : 0
Формат                                   : MPEG-4 Visual
Профиль формата                          : Advanced Simple@L5
Настройки формата                        : BVOP1 / Custom Matrix
Параметр BVOP формата                    : 1
Параметр QPel формата                    : Нет
Параметр GMC формата                     : Без точки перехода
Параметр матрицы формата                 : Выборочная
Идентификатор кодека                     : XVID
Идентификатор кодека/Подсказка           : XviD
Продолжительность                        : 1 ч. 51 м.
Битрейт                                  : 1479 Кбит/сек
Ширина                                   : 720 пикселей
Высота                                   : 304 пикселя
Соотношение сторон                       : 2,35:1
Частота кадров                           : 24,000 кадра/сек
Цветовое пространство                    : YUV
Субдискретизация насыщенности            : 4:2:0
Битовая глубина                          : 8 бит
Тип развёртки                            : Прогрессивная
Метод сжатия                             : С потерями
Бит/(Пиксели*Кадры)                      : 0.281
Размер потока                            : 1,15 Гбайт (79%)
Библиотека кодирования                   : XviD 69

Аудио
Идентификатор                            : 1
Формат                                   : AC-3
Формат/Информация                        : Audio Coding 3
Коммерческое название                    : Dolby Digital
Идентификатор кодека                     : 2000
Продолжительность                        : 1 ч. 51 м.
Вид битрейта                             : Постоянный
Битрейт                                  : 384 Кбит/сек
Каналы                                   : 6 каналов
ChannelLayout                            : L R C LFE Ls Rs
Частота                                  : 48,0 КГц
Частота кадров                           : 31,250 кадров/сек (1536 SPF)
Битовая глубина                          : 16 бит
Метод сжатия                             : С потерями
Размер потока                            : 306 Мбайт (21%)
Выравнивание                             : Разделение по промежуткам
Продолжительность промежутка             : 42  мс. (1,00 видеокадр)
Время предзагрузки промежутка            : 500  мс.
ServiceKind/String                       : Complete Main

Этот торрент недоступен для скачивания без регистрации, однако доступен по публичной magnet-ссылке (источники с публичных трекеров). Перед использованием ссылки прочтите, пожалуйста Пользовательское соглашение, а также как можно дольше оставайтесь на раздаче! Для того, чтобы скачать сам торрент-файл (который видит больше источников), а также для того, чтобы поблагодарить релизера, вам необходимо зарегистрироваться. Если регистрироваться лень - вы можете также попробовать скачать релиз по нашим партнерским ссылкам ниже. Кроме того, зарегистрированным пользователям не показывается всплывающая реклама при скачивании.

[underver.se].t224523.torrent
Трекер: Зарегистрирован   [ 13.10.2021 21:57 ]  

Статус: проверено (by makkol at 13.10.2021 21:57)
Поблагодарили: пока никто не поблагодарил...
Тип торрента: публичный - доступные источники с открытых трекеров: 
Размер: 1,46 GB (занимает 1/3 DVDR, для записи нужно 1 болванка DVDR/RW)
 
 
Похожие темы
Форум Тема Автор Торрент Отв. Посл. сооб.
Зарубежное кино [DVDRip, Low-Res HDRip, и т.д.] Мистериум. Тьма в бутылке / Flaskepost fra P (Ганс Петтер Моланд) [2016 г., триллер, драма, криминал, WEB-DLRip] MVO makkol
1 | 0

0 | 2274

33

21.07.2016 22:52

Зарубежное кино [DVDRip, Low-Res HDRip, и т.д.] Мистериум. Тьма в бутылке / Flaskepost fra P (Ганс Петтер Моланд) [2016 г., триллер, драма, криминал, HDRip] MVO makkol
11 | 0

0 | 1979

38

26.07.2016 22:24

Зарубежное кино [DVDRip, Low-Res HDRip, и т.д.] Мистериум. Тьма в бутылке / Flaskepost fra P (Ганс Петтер Моланд / Hans Petter Moland) [2016 г., триллер, драма, HDRip] MVO (GreenРай Studio) + Original (Fre) 90ytr90
3 | 1

0 | 1727

9

31.08.2016 15:54

Зарубежное кино [DVDRip, Low-Res HDRip, и т.д.] Мистериум. Тьма в бутылке / Flaskepost fra P (Ганс Петтер Моланд / Hans Petter Moland) [2016 г., триллер, криминал, детектив, драма, экранизация, BDRip] AVO (Немахов) 90ytr90
1 | 0

0 | 1090

3

21.01.2017 17:46

Зарубежное кино [DVDRip, Low-Res HDRip, и т.д.] Мистериум. Тьма в бутылке / Flaskepost fra P (Ганс Петтер Моланд / Hans Petter Moland) [2016 г., триллер, криминал, детектив, драма, экранизация, BDRip] AVO (Немахов) + Original (Dan) 90ytr90
0 | 1

0 | 989

7

21.01.2017 19:02

Зарубежное кино [DVDRip, Low-Res HDRip, и т.д.] Мистериум. Начало / Kvinden i buret (Миккель Нёргор) [2013 г., триллер, криминал, детектив, BDRip] MVO (Позитив) 90ytr90
2 | 0

0 | 1403

29

21.01.2017 20:27

Зарубежное кино [DVDRip, Low-Res HDRip, и т.д.] Мистериум. Журнал 64 / Journal 64 (Кристоффер Боэ / Christoffer Boe) [2018 г., триллер, криминал, детектив, BDRip] MVO (HDRezka Studio) + Original (Dan) + Sub (Rus) 90ytr90
17 | 5

0 | 888

29

02.04.2019 16:50

Зарубежное кино [DVDRip, Low-Res HDRip, и т.д.] Мистериум. Журнал 64 / Journal 64 (Кристоффер Боэ / Christoffer Boe) [2018 г., триллер, криминал, детектив, BDRip] MVO (HDRezka Studio***) + Sub (Rus) 90ytr90
7 | 1

0 | 703

12

03.04.2019 17:29

Зарубежное кино [DVDRip, Low-Res HDRip, и т.д.] Мистериум. Журнал 64 / Journal 64 (Кристоффер Боэ / Christoffer Boe) [2018 г., триллер, криминал, детектив, HDRip] MVO (HDRezka Studio) + Original (Dan) + Sub (Rus) + hardsub (Rus) 90ytr90
3 | 0

0 | 1293

22

22.11.2019 00:04

Зарубежное кино [DVDRip, Low-Res HDRip, и т.д.] Мистериум. Журнал 64 / Journal 64 (Кристоффер Боэ) [2018 г., детектив, криминал, триллер, BDRip] DUB (iTunes) + Sub makkol
15 | 2

0 | 123

2

20.10.2021 22:04


Яндекс.Метрика powered by Sphinx


В Н И М А Н И Е
Сайт не распространяет и не хранит электронные версии произведений, а лишь бесплатно и без коммерческой выгоды (не требуя взамен платы,
SMS и т.д.) предоставляет доступ к создаваемому пользователями каталогу ссылок на торрент-файлы, которые содержат только списки хеш-сумм.
Убедительная просьба с жалобами обращаться напрямую к пользователю, разместившему торрент файл.

Вверх