Loading...
Error

Вокруг Света за 80 Дней / Around the World in 80 Days (Фрэнк Корачи) [2004 г., боевик, комедия, приключения, семейный, вестерн, WEB-DLRip 1080p] DUB (Невафильм) Open Matte

Статистика раздачи
Размер:  6,22 GB   |    Зарегистрирован:  8 дней   |    Скачан:  3 раза

Полного источника не было: 8 часов

Сидов:  0  |  0 KB/s  ]   Личеров:  0  |  0 KB/s  ]

* - сиды/пиры с внешних источников

   
 
Автор Сообщение

FiNikola Пол:Муж

13-Окт-2021 23:58

Вокруг Света за 80 Дней / Around the World in 80 Days

Производство: США, Германия, Великобритания, Ирландия / Walt Disney Pictures, Walden Media, Spanknyce Film, 80 Days Productions Ltd.
Жанр: боевик, комедия, приключения, семейный, вестерн

Режиссер: Фрэнк Корачи
Актеры: Джеки Чан, Стив Куган, Сесиль Де Франс, Роберт Файф, Джим Бродбент, Иэн МакНис, Дэвид Райалл, Роджер Хэммонд, Адам Годли, Ховард Купер

Описание:
Эксцентричный лондонский изобретатель Филеас Фогг раскрыл тайны полетов, электричества и многие другие, но общество не принимает его, считая сумасшедшим. Фоггу очень хочется, чтобы к нему относились серьезно, и он заключает необычное пари с лордом Келвином, главой Королевской академии наук: он берется совершить путешествие вокруг земного шара не более чем за 80 дней.
Вместе со своим лакеем Паспарту и жаждущей острых ощущений французской художницей Моник Фогг пускается в безумную, захватывающую кругосветную гонку по суше, морю и воздуху. Во время головокружительного путешествия наши герои попадают в самые экзотические уголки планеты. В пути их ждут многочисленные приключения и препятствия...



Возраст: 6+ (зрителям, достигшим 6 лет)
Рейтинг MPAA: PG (рекомендуется присутствие родителей)

Продолжительность: 02:00:18
Качество видео: WEB-DLRip 1080p
Перевод: Дублированный (Невафильм)
Субтитры: Русские, английские

Видео: AVC/H.264, 1920x1080, 6951 Kbps
Аудио: AC3, 6 ch, 448 Kbps - Русский
x264 [info]: frame I:1798  Avg QP:18.76  size:208251 
x264 [info]: frame P:48784 Avg QP:19.83 size: 71413
x264 [info]: frame B:122493 Avg QP:22.47 size: 19710
x264 [info]: consecutive B-frames: 6.0% 7.4% 10.4% 35.2% 15.5% 23.0% 1.7% 0.5% 0.1% 0.1% 0.1%

General
Unique ID : 219682454638294107907105255678001076589 (0xA5454D406F28D5FE69335B23F404D96D)
Complete name : F:\ДЖЕКИ ЧАН\Вокруг Света за 80 дней (Open Matte).mkv
Format : Matroska
Format version : Version 4
File size : 6.22 GiB
Duration : 2 h 0 min
Overall bit rate : 7 402 kb/s
Movie name : Вокруг света за 80 дней / Around the World in 80 Days (2004) (Open Matte) - #LORDKILL#
Encoded date : UTC 2021-10-13 16:52:48
Writing application : mkvmerge v32.0.0 ('Astral Progressions') 64-bit
Writing library : libebml v1.3.7 + libmatroska v1.5.0

Video
ID : 1
Format : AVC
Format/Info : Advanced Video Codec
Format profile : High@L4.1
Format settings : CABAC / 4 Ref Frames
Format settings, CABAC : Yes
Format settings, Reference : 4 frames
Codec ID : V_MPEG4/ISO/AVC
Duration : 2 h 0 min
Bit rate : 6 951 kb/s
Width : 1 920 pixels
Height : 1 080 pixels
Display aspect ratio : 16:9
Frame rate mode : Constant
Frame rate : 23.976 (24000/1001) FPS
Color space : YUV
Chroma subsampling : 4:2:0
Bit depth : 8 bits
Scan type : Progressive
Bits/(Pixel*Frame) : 0.140
Stream size : 5.84 GiB (94%)
Writing library : x264 core 160 r3000 33f9e14
Encoding settings : cabac=1 / ref=4 / deblock=1:-2:-2 / analyse=0x3:0x113 / me=umh / subme=10 / psy=1 / psy_rd=1.00:0.20 / mixed_ref=1 / me_range=32 / chroma_me=1 / trellis=2 / 8x8dct=1 / cqm=0 / deadzone=21,11 / fast_pskip=0 / chroma_qp_offset=-3 / threads=24 / lookahead_threads=6 / sliced_threads=0 / nr=0 / decimate=1 / interlaced=0 / bluray_compat=0 / constrained_intra=0 / bframes=10 / b_pyramid=2 / b_adapt=2 / b_bias=0 / direct=1 / weightb=1 / open_gop=0 / weightp=2 / keyint=240 / keyint_min=23 / scenecut=40 / intra_refresh=0 / rc=crf / mbtree=0 / crf=20.5 / qcomp=0.60 / qpmin=0 / qpmax=69 / qpstep=4 / ip_ratio=1.40 / pb_ratio=1.30 / aq=1:1.00
Default : Yes
Forced : No

Audio
ID : 2
Format : AC-3
Format/Info : Audio Coding 3
Commercial name : Dolby Digital
Codec ID : A_AC3
Duration : 2 h 0 min
Bit rate mode : Constant
Bit rate : 448 kb/s
Channel(s) : 6 channels
Channel layout : L R C LFE Ls Rs
Sampling rate : 48.0 kHz
Frame rate : 31.250 FPS (1536 SPF)
Compression mode : Lossy
Stream size : 386 MiB (6%)
Title : Дубляж (Невафильм)
Language : Russian
Service kind : Complete Main
Default : Yes
Forced : No

Text #1
ID : 3
Format : UTF-8
Codec ID : S_TEXT/UTF8
Codec ID/Info : UTF-8 Plain Text
Duration : 1 h 52 min
Bit rate : 87 b/s
Count of elements : 1155
Stream size : 71.6 KiB (0%)
Title : R5
Language : Russian
Default : No
Forced : No

Text #2
ID : 4
Format : UTF-8
Codec ID : S_TEXT/UTF8
Codec ID/Info : UTF-8 Plain Text
Duration : 1 h 49 min
Bit rate : 93 b/s
Count of elements : 1411
Stream size : 75.0 KiB (0%)
Title : Tycoon
Language : Russian
Default : No
Forced : No

Text #3
ID : 5
Format : UTF-8
Codec ID : S_TEXT/UTF8
Codec ID/Info : UTF-8 Plain Text
Duration : 1 h 58 min
Bit rate : 59 b/s
Count of elements : 1858
Stream size : 52.0 KiB (0%)
Title : SDH
Language : English
Default : No
Forced : No
Open Matte-версия фильма имеет большее наполнение кадра по сравнению с Blu-ray.

pic pic pic pic

Этот торрент недоступен для скачивания без регистрации, однако доступен по публичной magnet-ссылке (источники с публичных трекеров). Перед использованием ссылки прочтите, пожалуйста Пользовательское соглашение, а также как можно дольше оставайтесь на раздаче! Для того, чтобы скачать сам торрент-файл (который видит больше источников), а также для того, чтобы поблагодарить релизера, вам необходимо зарегистрироваться. Если регистрироваться лень - вы можете также попробовать скачать релиз по нашим партнерским ссылкам ниже. Кроме того, зарегистрированным пользователям не показывается всплывающая реклама при скачивании.

[underver.se].t224540.torrent
Трекер: Зарегистрирован   [ 13.10.2021 23:58 ]  

Статус: проверено (by FiNikola at 13.10.2021 23:59)
Поблагодарили: пока никто не поблагодарил...
Тип торрента: публичный - доступные источники с открытых трекеров: 
Размер: 6,22 GB (занимает 1,42 DVDR, для записи нужно 2 болванки DVDR/RW)
 
 
Похожие темы
Форум Тема Автор Торрент Отв. Посл. сооб.
Зарубежное кино [DVDRip, Low-Res HDRip, и т.д.] Вокруг света за 80 дней / Around the World in 80 Days (Фрэнк Корачи) [2004 г., боевик, комедия, приключения, семейный, BDRip-AVC] DUB (Невафильм) + DVO (Tycoon-Studio) + MVO (ukr) + ENG + Sub (rus,... Parallelo
1 | 0

0 | 843

7

28.09.2018 14:03

% Зарубежные мультфильмы Вокруг света с Тимоном и Пумбой / Around the World with Timon & Pumba (Тони Грэг / Toni Greg, Роберт Ганнавай / Robert Gannaway, Стив Моу / Stiv Mou) [1995 г., мультфильм, комедия, приключения,... 90ytr90
1 | 0

0 | 715

1

15.03.2020 20:41

% Зарубежные мультфильмы Вокруг света с Тимоном и Пумбой / Around the World with Timon & Pumba (Тони Грэг / Toni Greg, Роберт Ганнавай / Robert Gannaway, Стив Моу / Stiv Mou) [1995 г., мультфильм, комедия, приключения,... 90ytr90
0 | 0

0 | 701

2

15.03.2020 20:45

Научные, образовательные и технические журналы Вокруг света №11 (ноябрь) [2016 г., Научно-популярный журнал, PDF] RUS vvmalysh
1 | 0

0 | 1106

10

18.11.2016 20:01

Научные, образовательные и технические журналы Вокруг света №12 (декабрь) [2016 г., Научно-популярный журнал, PDF] RUS vvmalysh
1 | 0

0 | 995

12

17.12.2016 20:04

Научные, образовательные и технические журналы Вокруг света №10 (октябрь) [2016 г., Научно-популярный журнал, PDF] RUS vvmalysh
2 | 0

0 | 975

12

14.10.2016 19:27

Научные, образовательные и технические журналы Вокруг света №1 (январь) [2016 г., Научно-популярный журнал, PDF] RUS vvmalysh
1 | 0

0 | 1312

8

24.12.2015 19:47

Научные, образовательные и технические журналы Вокруг света №3 (Март) [2015 г., научно-популярный журнал, PDF] RUS Паукан
0 | 0

0 | 1439

15

27.02.2015 11:57

Научные, образовательные и технические журналы Вокруг света №7 (июль) [2015 г., научно-популярный журнал, PDF] RUS Паукан
2 | 0

0 | 923

12

05.07.2015 07:45

Научные, образовательные и технические журналы Вокруг света №8 [2015 г., Научно-популярный журнал, PDF] RUS vvmalysh
2 | 0

0 | 892

7

25.07.2015 10:27


Яндекс.Метрика powered by Sphinx


В Н И М А Н И Е
Сайт не распространяет и не хранит электронные версии произведений, а лишь бесплатно и без коммерческой выгоды (не требуя взамен платы,
SMS и т.д.) предоставляет доступ к создаваемому пользователями каталогу ссылок на торрент-файлы, которые содержат только списки хеш-сумм.
Убедительная просьба с жалобами обращаться напрямую к пользователю, разместившему торрент файл.

Вверх