Loading...
Error

(Heavy Metal) Crystal Viper - Tales Of Fire And Ice (2019) [FLAC (Image+.CUE), Lossless]

Статистика раздачи
Размер:  471 MB   |    Зарегистрирован:  1 месяц 20 дней   |    Скачан:  1 раз

Полного источника не было: 1 месяц

Сидов:  0  |  0 KB/s  ]   Личеров:  0  |  0 KB/s  ]

* - сиды/пиры с внешних источников

   
 
Автор Сообщение

Бишеп Пол:Муж

17-Окт-2021 07:06

Crystal Viper - Tales Of Fire And Ice

Жанр: Heavy Metal
Год выпуска: 2019
Носитель: CD
Производитель диска: Rubicon Music - RBNCD-1295
Аудиокодек: FLAC
Тип рипа: Image+.CUE
Битрейт аудио: lossless
Продолжительность: 01:06:04


Треклист:
01. Prelude (01:31)
02. Still Alive (03:42)
03. Crystal Sphere (05:02)
04. Bright Lights (03:43)
05. Neverending Fire (04:58)
06. Interlude (00:56)
07. Under Ice (04:30)
08. One Question (04:18)
09. Tomorrow Never Comes (Dyatlov Pass) (03:50)
10. Tears Of Arizona (04:39)
11. Dream Warriors (04:54)
12. Alone (03:45)
"At The Edge Of Time" EP
13. At The Edge Of Time (03:44)
14. When The Sun Goes Down (Giallo Version) (05:25)
15. When Are You (03:51)
16. Tell Me Why (03:29)
17. Zwiastun Burzy (03:45)

Exact Audio Copy V1.5 from 20. February 2020 

EAC extraction logfile from 4. October 2021, 0:53

Crystal Viper / Tales Of Fire And Ice

Used drive : ASUS DRW-24B5ST Adapter: 1 ID: 0

Read mode : Secure
Utilize accurate stream : Yes
Defeat audio cache : Yes
Make use of C2 pointers : No

Read offset correction : 6
Overread into Lead-In and Lead-Out : No
Fill up missing offset samples with silence : Yes
Delete leading and trailing silent blocks : No
Null samples used in CRC calculations : Yes
Used interface : Native Win32 interface for Win NT & 2000

Used output format : Internal WAV Routines
Sample format : 44.100 Hz; 16 Bit; Stereo

TOC of the extracted CD

Track | Start | Length | Start sector | End sector
---------------------------------------------------------
1 | 0:00.00 | 1:31.10 | 0 | 6834
2 | 1:31.10 | 3:42.04 | 6835 | 23488
3 | 5:13.14 | 5:02.21 | 23489 | 46159
4 | 10:15.35 | 3:43.35 | 46160 | 62919
5 | 13:58.70 | 4:58.08 | 62920 | 85277
6 | 18:57.03 | 0:55.53 | 85278 | 89455
7 | 19:52.56 | 4:30.25 | 89456 | 109730
8 | 24:23.06 | 4:18.30 | 109731 | 129110
9 | 28:41.36 | 3:50.02 | 129111 | 146362
10 | 32:31.38 | 4:39.02 | 146363 | 167289
11 | 37:10.40 | 4:54.03 | 167290 | 189342
12 | 42:04.43 | 3:45.10 | 189343 | 206227
13 | 45:49.53 | 3:44.32 | 206228 | 223059
14 | 49:34.10 | 5:25.30 | 223060 | 247464
15 | 54:59.40 | 3:51.20 | 247465 | 264809
16 | 58:50.60 | 3:28.50 | 264810 | 280459
17 | 62:19.35 | 3:45.19 | 280460 | 297353

Range status and errors

Selected range

Filename E:\2021\Crystal Viper\2021 'The Cult'\New Flac\Новая папка\Crystal Viper 2019 'Tales Of Fire And Ice'.wav

Peak level 98.8 %
Extraction speed 3.1 X
Range quality 99.9 %
Test CRC E65E030D
Copy CRC E65E030D
Copy OK

No errors occurred

AccurateRip summary
Track 1 not present in database
Track 2 not present in database
Track 3 not present in database
Track 4 not present in database
Track 5 not present in database
Track 6 not present in database
Track 7 not present in database
Track 8 not present in database
Track 9 not present in database
Track 10 not present in database
Track 11 not present in database
Track 12 not present in database
Track 13 not present in database
Track 14 not present in database
Track 15 not present in database
Track 16 not present in database
Track 17 not present in database
None of the tracks are present in the AccurateRip database

End of status report

---- CUETools DB Plugin V2.1.6

[CTDB TOCID: Ahb8uPGc_neOXSUglRNaYimGZe0-] found
Submit result: Ahb8uPGc_neOXSUglRNaYimGZe0- has been confirmed
Track | CTDB Status
1 | (1/1) Accurately ripped
2 | (1/1) Accurately ripped
3 | (1/1) Accurately ripped
4 | (1/1) Accurately ripped
5 | (1/1) Accurately ripped
6 | (1/1) Accurately ripped
7 | (1/1) Accurately ripped
8 | (1/1) Accurately ripped
9 | (1/1) Accurately ripped
10 | (1/1) Accurately ripped
11 | (1/1) Accurately ripped
12 | (1/1) Accurately ripped
13 | (1/1) Accurately ripped
14 | (1/1) Accurately ripped
15 | (1/1) Accurately ripped
16 | (1/1) Accurately ripped
17 | (1/1) Accurately ripped

==== Log checksum AD614CD80ECBEBBD14A398971AC6CB541D4D9011B66F0AABA2338DCA7F4D02E4 ====
REM GENRE "Heavy Metal" 
REM DATE 2019
REM DISCID DF0F7C11
REM COMMENT "ExactAudioCopy v1.5"
PERFORMER "Crystal Viper"
TITLE "Tales Of Fire And Ice"
REM COMPOSER ""
FILE "Crystal Viper - Tales Of Fire And Ice.flac" WAVE
TRACK 01 AUDIO
TITLE "Prelude"
PERFORMER "Crystal Viper"
REM COMPOSER ""
INDEX 01 00:00:00
TRACK 02 AUDIO
TITLE "Still Alive"
PERFORMER "Crystal Viper"
REM COMPOSER ""
INDEX 01 01:31:10
TRACK 03 AUDIO
TITLE "Crystal Sphere"
PERFORMER "Crystal Viper"
REM COMPOSER ""
INDEX 01 05:13:14
TRACK 04 AUDIO
TITLE "Bright Lights"
PERFORMER "Crystal Viper"
REM COMPOSER ""
INDEX 01 10:15:35
TRACK 05 AUDIO
TITLE "Neverending Fire"
PERFORMER "Crystal Viper"
REM COMPOSER ""
INDEX 01 13:58:70
TRACK 06 AUDIO
TITLE "Interlude"
PERFORMER "Crystal Viper"
REM COMPOSER ""
INDEX 01 18:57:03
TRACK 07 AUDIO
TITLE "Under Ice"
PERFORMER "Crystal Viper"
REM COMPOSER ""
INDEX 01 19:52:56
TRACK 08 AUDIO
TITLE "One Question"
PERFORMER "Crystal Viper"
REM COMPOSER ""
INDEX 01 24:23:06
TRACK 09 AUDIO
TITLE "Tomorrow Never Comes (Dyatlov Pass)"
PERFORMER "Crystal Viper"
REM COMPOSER ""
INDEX 01 28:41:36
TRACK 10 AUDIO
TITLE "Tears Of Arizona"
PERFORMER "Crystal Viper"
REM COMPOSER ""
INDEX 01 32:31:38
TRACK 11 AUDIO
TITLE "Dream Warriors"
PERFORMER "Crystal Viper"
REM COMPOSER ""
INDEX 01 37:10:40
TRACK 12 AUDIO
TITLE "Alone"
PERFORMER "Crystal Viper"
REM COMPOSER ""
INDEX 01 42:04:43
TRACK 13 AUDIO
TITLE "At The Edge Of Time"
PERFORMER "Crystal Viper"
REM COMPOSER ""
INDEX 01 45:49:53
TRACK 14 AUDIO
TITLE "When The Sun Goes Down (Giallo Version)"
PERFORMER "Crystal Viper"
REM COMPOSER ""
INDEX 01 49:34:10
TRACK 15 AUDIO
TITLE "When Are You"
PERFORMER "Crystal Viper"
REM COMPOSER ""
INDEX 01 54:59:40
TRACK 16 AUDIO
TITLE "Tell Me Why"
PERFORMER "Crystal Viper"
REM COMPOSER ""
INDEX 01 58:50:60
TRACK 17 AUDIO
TITLE "Zwiastun Burzy"
PERFORMER "Crystal Viper"
REM COMPOSER ""
INDEX 01 62:19:35

Этот торрент недоступен для скачивания без регистрации, однако доступен по публичной magnet-ссылке (источники с публичных трекеров). Перед использованием ссылки прочтите, пожалуйста Пользовательское соглашение, а также как можно дольше оставайтесь на раздаче! Для того, чтобы скачать сам торрент-файл (который видит больше источников), а также для того, чтобы поблагодарить релизера, вам необходимо зарегистрироваться. Если регистрироваться лень - вы можете также попробовать скачать релиз по нашим партнерским ссылкам ниже. Кроме того, зарегистрированным пользователям не показывается всплывающая реклама при скачивании.

[underver.se].t224880.torrent
Трекер: Зарегистрирован   [ 17.10.2021 07:06 ]  

Статус: проверено (by Бишеп at 17.10.2021 07:06)
Поблагодарили: пока никто не поблагодарил...
Тип торрента: публичный - доступные источники с открытых трекеров: 
Размер: 471 MB (занимает 0,11 DVDR, для записи нужно 1 болванка DVDR/RW)
 
 
Похожие темы
Форум Тема Автор Торрент Отв. Посл. сооб.
Зарубежный Hard, Progressive, Soft, Melodic, AOR, Folk, Classic Rock (Heavy Metal) Dee Snider - For the Love of Metal (2018) [MP3, 320 kbps CBR] 90ytr90
1 | 0

0 | 1527

11

05.08.2018 17:44

Зарубежный Hard, Progressive, Soft, Melodic, AOR, Folk, Classic Rock (Heavy Metal, Power Metal) Mob Rules - Beast Reborn [2CD Limited Edition] (2018) [MP3, 320 kbps CBR] 90ytr90
1 | 0

0 | 1680

8

26.08.2018 17:13

Зарубежный Hard, Progressive, Soft, Melodic, AOR, Folk, Classic Rock (Heavy Metal, Hard Rock) Emotional Suicide - Emotional Suicide (2018) [MP3, 320 kbps CBR] 90ytr90
1 | 0

0 | 1272

2

25.11.2018 07:38

Зарубежный Hard, Progressive, Soft, Melodic, AOR, Folk, Classic Rock (Heavy Metal, Hard Rock, Glam, AOR) TNT - XIII [Japanese Edition] (2018) [MP3, 320 kbps CBR] 90ytr90
5 | 0

0 | 1360

7

25.11.2018 13:24

Зарубежный Hard, Progressive, Soft, Melodic, AOR, Folk, Classic Rock (Heavy Metal, Hard Rock) Voodoo Stan & the Satan Band - The Dead & the Departed (2018) [MP3, 320 kbps CBR] 90ytr90
1 | 0

0 | 941

2

03.12.2018 07:27

Зарубежный Hard, Progressive, Soft, Melodic, AOR, Folk, Classic Rock (Heavy Metal) Southern Brutality - Watch Them Burn (2020) [MP3, 320 kbps CBR] Konin
1 | 0

1 | 471

5

14.02.2021 05:54

Зарубежный Hard, Progressive, Soft, Melodic, AOR, Folk, Classic Rock (Heavy Metal, Hard Rock) Gasoline Guns - Motor Cult (2021) [MP3, 320 kbps CBR] Konin
1 | 0

0 | 202

5

24.07.2021 21:13

Зарубежный Black, Death, Heavy, Thrash, Power, Folk, Gothic Metal (Heavy Metal / Hard Rock) Lou Reed & Metallica - Lulu (2011) [MP3, ~287 kbps] Jimmy
0 | 1

0 | 3284

18

23.10.2011 16:21

Зарубежный Black, Death, Heavy, Thrash, Power, Folk, Gothic Metal (Heavy metal) Vanize - Дискография (1995-2006) [MP3, 320 kbps] Whitesnake_13
0 | 1

1 | 4239

7

17.07.2013 03:44

Зарубежный Black, Death, Heavy, Thrash, Power, Folk, Gothic Metal (Heavy Metal) Ozzy Osbourne - Memoirs of a Madman (2014) [AAC, 256 kbps VBR] garry
0 | 0

0 | 3136

6

26.02.2012 10:18


Яндекс.Метрика powered by Sphinx


В Н И М А Н И Е
Сайт не распространяет и не хранит электронные версии произведений, а лишь бесплатно и без коммерческой выгоды (не требуя взамен платы,
SMS и т.д.) предоставляет доступ к создаваемому пользователями каталогу ссылок на торрент-файлы, которые содержат только списки хеш-сумм.
Убедительная просьба с жалобами обращаться напрямую к пользователю, разместившему торрент файл.

Вверх