Loading...
Error

Охотник за разумом. Схватка / No Man of God (Эмбер Роуз Сили) [2021 г., драма, криминал, детектив, биография, BDRip-AVC] Dub (Студия Велес) + Original + Sub

Статистика раздачи
Размер:  2.23 GB   |    Зарегистрирован:  11 месяцев   |    Скачан:  11 раз

Полного источника не было: 5 месяцев 18 дней

Сидов:  0  |  0 KB/s  ]   Личеров:  0  |  0 KB/s  ]

* - сиды/пиры с внешних источников

   
 
Автор Сообщение

makkol Пол:Муж

24-Окт-2021 22:06

Охотник за разумом. Схватка / No Man of God
«Самый известный серийный убийца против лучшего агента ФБР»


Год выпуска: 2021
Жанр: драма, криминал, детектив, биография
Производство: США [Company X]
Режиссер: Эмбер Роуз Сили
В ролях: Элайджа Вуд, Люк Кирби, У. Эрл Браун, Алекса Палладино, Роберт Патрик, Гилберт Овуор, Кристиан Клименсон, Хьюго Армстронг, Никан Робинсон, Уилл Харрис
Сюжет фильма:
Аналитик ФБР Билл Хагмайер в рамках нового исследования поведения серийных убийц проводит ряд интервью с Тедом Банди, который убил более 20 женщин. Харизматичная натура преступника начинает искажать восприятие агента, с каждой встречей ему всю сложнее оставаться объективным и не поддаваться очарованию Банди.

  • Мировая премьера: 11 июня 2021
  • Российская премьера: 19 августа 2021


Качество видео: BDRip-AVC [исх. No.Man.of.God.2021.1080p.Blu-ray.AVC.DTS-HD MA.5.1-(_10_)]

Продолжительность: 01:40:14
Формат: MKV
Видео: MPEG-4 AVC, 1024x426 (2.40:1), 23.976 fps, 2550 kbps
Аудио #1: русский, дублированный (Студия Велес), AC3 2.0, 48 kHz, 192 kbps
Аудио #2: английский, оригинал, AC3 5.1, 48 kHz, 448 kbps
Субтитры: русские (форсированные, полные), английские (полные, SDH) вшитые отключаемые

Релиз:

Код:

Общее
Уникальный идентификатор : 247581603321795571020417299194979881958 (0xBA427B7B66679261960D19016F8513E6)
Полное имя : No.Man.of.God.2021.D.BDRip.DD.2.0.x264.MegaPeer.mkv
Формат : Matroska
Версия формата : Version 4
Размер файла : 2,23 Гбайт
Продолжительность : 1 ч. 40 м.
Общий поток : 3 187 Кбит/сек
Название фильма : Охотник за разумом. Схватка / No Man of God (2021) от MegaPeer
Дата кодирования : UTC 2021-10-24 19:12:49
Программа кодирования : mkvmerge v15.0.0 ('Duel with the Devil') 64-bit
Библиотека кодирования : libebml v1.3.5 + libmatroska v1.4.5
Обложка : Yes
Attachments : cover.jpg

Видео
Идентификатор : 1
Формат : AVC
Формат/Информация : Advanced Video Codec
Профиль формата : [email protected]
Настройки формата : CABAC / 11 Ref Frames
Параметр CABAC формата : Да
Параметр RefFrames формата : 11 кадров
Идентификатор кодека : V_MPEG4/ISO/AVC
Продолжительность : 1 ч. 40 м.
Битрейт : 2 550 Кбит/сек
Ширина : 1 024 пикселя
Высота : 426 пикселей
Соотношение сторон : 2,40:1
Режим частоты кадров : Постоянный
Частота кадров : 23,976 кадра/сек
Цветовое пространство : YUV
Субдискретизация насыщенности : 4:2:0
Битовая глубина : 8 бит
Тип развёртки : Прогрессивная
Бит/(Пиксели*Кадры) : 0.244
Размер потока : 1,78 Гбайт (80%)
Заголовок : [email protected]
Библиотека кодирования : x264 core 161 r3018 db0d417
Настройки программы : cabac=1 / ref=11 / deblock=1:-2:-2 / analyse=0x3:0x113 / me=umh / subme=10 / psy=1 / psy_rd=1.05:0.03 / mixed_ref=1 / me_range=48 / chroma_me=1 / trellis=2 / 8x8dct=1 / cqm=0 / deadzone=21,11 / fast_pskip=0 / chroma_qp_offset=-3 / threads=13 / lookahead_threads=3 / sliced_threads=0 / nr=0 / decimate=0 / interlaced=0 / bluray_compat=0 / constrained_intra=0 / bframes=12 / b_pyramid=2 / b_adapt=2 / b_bias=0 / direct=3 / weightb=1 / open_gop=0 / weightp=2 / keyint=240 / keyint_min=24 / scenecut=40 / intra_refresh=0 / rc_lookahead=40 / rc=2pass / mbtree=0 / bitrate=2550 / ratetol=1.0 / qcomp=0.60 / qpmin=0 / qpmax=69 / qpstep=4 / cplxblur=20.0 / qblur=0.5 / vbv_maxrate=50000 / vbv_bufsize=62500 / nal_hrd=none / filler=0 / ip_ratio=1.40 / pb_ratio=1.30 / aq=1:1.10
Язык : English
Default : Да
Forced : Нет

Аудио #1
Идентификатор : 2
Формат : AC-3
Формат/Информация : Audio Coding 3
Коммерческое название : Dolby Digital
Идентификатор кодека : A_AC3
Продолжительность : 1 ч. 40 м.
Вид битрейта : Постоянный
Битрейт : 192 Кбит/сек
Каналы : 2 канала
Channel layout : L R
Частота : 48,0 КГц
Частота кадров : 31,250 кадров/сек (1536 SPF)
Метод сжатия : С потерями
Размер потока : 138 Мбайт (6%)
Заголовок : DUB | Студия Велес
Язык : Russian
Service kind : Complete Main
Default : Да
Forced : Нет

Аудио #2
Идентификатор : 3
Формат : AC-3
Формат/Информация : Audio Coding 3
Коммерческое название : Dolby Digital
Идентификатор кодека : A_AC3
Продолжительность : 1 ч. 40 м.
Вид битрейта : Постоянный
Битрейт : 448 Кбит/сек
Каналы : 6 каналов
Channel layout : L R C LFE Ls Rs
Частота : 48,0 КГц
Частота кадров : 31,250 кадров/сек (1536 SPF)
Метод сжатия : С потерями
Размер потока : 321 Мбайт (14%)
Язык : English
Service kind : Complete Main
Default : Нет
Forced : Нет

Текст #1
Идентификатор : 4
Формат : UTF-8
Идентификатор кодека : S_TEXT/UTF8
Идентификатор кодека/Информация : UTF-8 Plain Text
Продолжительность : 1 ч. 31 м.
Битрейт : 2 бит/сек
Count of elements : 8
Размер потока : 1,81 Кбайт (0%)
Заголовок : Forced
Язык : Russian
Default : Да
Forced : Нет

Текст #2
Идентификатор : 5
Формат : UTF-8
Идентификатор кодека : S_TEXT/UTF8
Идентификатор кодека/Информация : UTF-8 Plain Text
Продолжительность : 1 ч. 34 м.
Битрейт : 108 бит/сек
Count of elements : 1523
Размер потока : 74,6 Кбайт (0%)
Заголовок : Full
Язык : Russian
Default : Нет
Forced : Нет

Текст #3
Идентификатор : 6
Формат : UTF-8
Идентификатор кодека : S_TEXT/UTF8
Идентификатор кодека/Информация : UTF-8 Plain Text
Продолжительность : 1 ч. 34 м.
Битрейт : 77 бит/сек
Count of elements : 1690
Размер потока : 53,7 Кбайт (0%)
Заголовок : Full
Язык : English
Default : Нет
Forced : Нет

Текст #4
Идентификатор : 7
Формат : UTF-8
Идентификатор кодека : S_TEXT/UTF8
Идентификатор кодека/Информация : UTF-8 Plain Text
Продолжительность : 1 ч. 39 м.
Битрейт : 77 бит/сек
Count of elements : 1834
Размер потока : 56,9 Кбайт (0%)
Заголовок : SDH
Язык : English
Default : Нет
Forced : Нет

Меню
00:00:00.000 : :eng: 01
00:24:54.701 : :eng: 02
00:35:32.630 : :eng: 03
00:47:46.405 : :eng: 04
01:00:58.320 : :eng: 05
01:15:18.305 : :eng: 06
01:21:24.880 : :eng: 07
01:35:47.363 : :eng: 08
01:40:13.090 : :eng: 09

Этот торрент недоступен для скачивания без регистрации, однако доступен по публичной magnet-ссылке (источники с публичных трекеров). Перед использованием ссылки прочтите, пожалуйста Пользовательское соглашение, а также как можно дольше оставайтесь на раздаче! Для того, чтобы скачать сам торрент-файл (который видит больше источников), а также для того, чтобы поблагодарить релизера, вам необходимо зарегистрироваться. Если регистрироваться лень - вы можете также попробовать скачать релиз по нашим партнерским ссылкам ниже. Кроме того, зарегистрированным пользователям не показывается всплывающая реклама при скачивании.

[underver.se].t225584.torrent
Трекер: Зарегистрирован   [ 24.10.2021 22:06 ]  
Статус: проверено (by makkol at 24.10.2021 22:07)
Поблагодарили: пока никто не поблагодарил...
Тип торрента: публичный - доступные источники с открытых трекеров: 
Размер: 2.23 GB (занимает 0.51 DVDR, для записи нужно 1 болванка DVDR/RW)
 
 

Яндекс.Метрика powered by Sphinx


В Н И М А Н И Е
Сайт не распространяет и не хранит электронные версии произведений, а лишь бесплатно и без коммерческой выгоды (не требуя взамен платы,
SMS и т.д.) предоставляет доступ к создаваемому пользователями каталогу ссылок на торрент-файлы, которые содержат только списки хеш-сумм.
Убедительная просьба с жалобами обращаться напрямую к пользователю, разместившему торрент файл.

Вверх