Loading...
Error

Удары / Bruised (Холли Берри) [2020 г., драма, спорт, WEB-DL 1080p] Dub (Невафильм) + Original + Sub

Статистика раздачи
Размер:  5,2 GB   |    Зарегистрирован:  12 дней   |    Скачан:  6 раз
Сидов:  1  |  87 KB/s  ]   Личеров:  0  |  0 KB/s  ]

* - сиды/пиры с внешних источников

   
 
Автор Сообщение

makkol Пол:Муж

24-Ноя-2021 11:04

Удары / Bruised


Год выпуска: 2020
Жанр: драма, спорт
Производство: США , Великобритания [Aloe Entertainment, Bohemia Media, Film 360, Head Gear Films, Metrol Technology, Rhea Films (II), Romulus Entertainment, Thunder Road]
Режиссер: Холли Берри
В ролях: Стивен Хендерсон, Холли Берри, Шамир Андерсон, Лила Лорен, Адан Канто, Уилл Блэгроув, Марселла Ленц-Поуп, Адриан Ленокс, Николай Николаефф, Денни Диллон
Сюжет фильма:
Выбирая между ребёнком и рингом, Джеки отдала предпочтение спортивной карьере. Но несколько лет спустя, когда она уже ушла из спорта и работает уборщицей, прошлое внезапно настигает её — отец мальчика умер, и теперь Джеки придётся заботится о шестилетнем сыне. Женщина вынужденно возвращается на ринг, чтобы заработать на будущее себе и ребёнку.

  • Мировая премьера: 12 сентября 2020


Качество видео: WEB-DL 1080p

Продолжительность: 02:12:37
Формат: MKV
Видео: MPEG-4 AVC, 1920x1080 (16:9), 24.000 fps, 3557 kbps
Аудио #1: русский, дублированный (Невафильм по заказу Netflix), E-AC3 5.1, 48 kHz, 640 kbps
Аудио #2: русский, дублированный (Невафильм по заказу Netflix), AC3 5.1, 48 kHz, 640 kbps
Аудио #3: английский, оригинал, E-AC3+Atmos 5.1, 48 kHz, 768 kbps
Субтитры: русские (Forced, full), украинские (Full), английские вшитые отключаемые

Релиз:

Код:

General
Unique ID : 329427147960493352549353738433566578837 (0xF7D55C624FD5C5DA2417E7590E979895)
Complete name : Bruised.2021.NF.WEB-DL.1080p.seleZen.mkv
Format : Matroska
Format version : Version 4
File size : 5.20 GiB
Duration : 2 h 12 min
Overall bit rate mode : Variable
Overall bit rate : 5 607 kb/s
Movie name : Bruised 2021 from seleZen
Encoded date : UTC 2021-11-24 08:31:14
Writing application : mkvmerge v59.0.0 ('Shining Star') 64-bit
Writing library : libebml v1.4.2 + libmatroska v1.6.4

Video
ID : 1
Format : AVC
Format/Info : Advanced Video Codec
Format profile : High@L4
Format settings : CABAC / 4 Ref Frames
Format settings, CABAC : Yes
Format settings, Reference frames : 4 frames
Codec ID : V_MPEG4/ISO/AVC
Duration : 2 h 12 min
Bit rate mode : Variable
Bit rate : 3 557 kb/s
Maximum bit rate : 20.0 Mb/s
Width : 1 920 pixels
Height : 1 080 pixels
Display aspect ratio : 16:9
Frame rate mode : Constant
Frame rate : 23.976 (24000/1001) FPS
Color space : YUV
Chroma subsampling : 4:2:0
Bit depth : 8 bits
Scan type : Progressive
Bits/(Pixel*Frame) : 0.072
Stream size : 3.30 GiB (63%)
Writing library : x264 core 148 r2727 7d026e8
Encoding settings : cabac=1 / ref=4 / deblock=1:0:0 / analyse=0x3:0x111 / me=umh / subme=10 / psy=1 / psy_rd=1.00:0.00 / mixed_ref=1 / me_range=120 / chroma_me=1 / trellis=2 / 8x8dct=1 / cqm=0 / deadzone=21,11 / fast_pskip=1 / chroma_qp_offset=-2 / threads=8 / lookahead_threads=2 / sliced_threads=0 / nr=0 / decimate=1 / interlaced=0 / bluray_compat=0 / stitchable=1 / constrained_intra=0 / bframes=16 / b_pyramid=2 / b_adapt=2 / b_bias=0 / direct=3 / weightb=1 / open_gop=0 / weightp=2 / keyint=240 / keyint_min=121 / scenecut=0 / intra_refresh=0 / rc_lookahead=240 / rc=crf / mbtree=1 / crf=20.0 / qcomp=0.50 / qpmin=6 / qpmax=51 / qpstep=4 / vbv_maxrate=20000 / vbv_bufsize=25000 / crf_max=0.0 / nal_hrd=vbr / filler=0 / ip_ratio=1.40 / aq=1:0.80
Language : English
Default : Yes
Forced : No

Audio #1
ID : 2
Format : E-AC-3
Format/Info : Enhanced AC-3
Commercial name : Dolby Digital Plus
Codec ID : A_EAC3
Duration : 2 h 12 min
Bit rate mode : Constant
Bit rate : 640 kb/s
Channel(s) : 6 channels
Channel layout : L R C LFE Ls Rs
Sampling rate : 48.0 kHz
Frame rate : 31.250 FPS (1536 SPF)
Compression mode : Lossy
Stream size : 607 MiB (11%)
Title : Netflix
Language : Russian
Service kind : Complete Main
Default : Yes
Forced : Yes

Audio #2
ID : 3
Format : AC-3
Format/Info : Audio Coding 3
Commercial name : Dolby Digital
Codec ID : A_AC3
Duration : 2 h 12 min
Bit rate mode : Constant
Bit rate : 640 kb/s
Channel(s) : 6 channels
Channel layout : L R C LFE Ls Rs
Sampling rate : 48.0 kHz
Frame rate : 31.250 FPS (1536 SPF)
Compression mode : Lossy
Stream size : 607 MiB (11%)
Title : Netflix
Language : Russian
Service kind : Complete Main
Default : No
Forced : No

Audio #3
ID : 4
Format : E-AC-3 JOC
Format/Info : Enhanced AC-3 with Joint Object Coding
Commercial name : Dolby Digital Plus with Dolby Atmos
Codec ID : A_EAC3
Duration : 2 h 12 min
Bit rate mode : Constant
Bit rate : 768 kb/s
Channel(s) : 6 channels
Channel layout : L R C LFE Ls Rs
Sampling rate : 48.0 kHz
Frame rate : 31.250 FPS (1536 SPF)
Compression mode : Lossy
Stream size : 729 MiB (14%)
Language : English
Service kind : Complete Main
Default : No
Forced : No
Complexity index : 16
Number of dynamic objects : 15
Bed channel count : 1 channel
Bed channel configuration : LFE

Text #1
ID : 5
Format : UTF-8
Codec ID : S_TEXT/UTF8
Codec ID/Info : UTF-8 Plain Text
Duration : 1 h 48 min
Bit rate : 1 b/s
Count of elements : 33
Stream size : 1.07 KiB (0%)
Title : Forced
Language : Russian
Default : Yes
Forced : Yes

Text #2
ID : 6
Format : UTF-8
Codec ID : S_TEXT/UTF8
Codec ID/Info : UTF-8 Plain Text
Duration : 2 h 10 min
Bit rate : 60 b/s
Count of elements : 1232
Stream size : 57.5 KiB (0%)
Title : Russian
Language : Russian
Default : No
Forced : No

Text #3
ID : 7
Format : UTF-8
Codec ID : S_TEXT/UTF8
Codec ID/Info : UTF-8 Plain Text
Duration : 2 h 10 min
Bit rate : 63 b/s
Count of elements : 1258
Stream size : 60.5 KiB (0%)
Title : Ukrainian
Language : Ukrainian
Default : No
Forced : No

Text #4
ID : 8
Format : UTF-8
Codec ID : S_TEXT/UTF8
Codec ID/Info : UTF-8 Plain Text
Duration : 2 h 4 min
Bit rate : 64 b/s
Count of elements : 1742
Stream size : 58.6 KiB (0%)
Title : English [SDH]
Language : English
Default : No
Forced : No

Этот торрент недоступен для скачивания без регистрации, однако доступен по публичной magnet-ссылке (источники с публичных трекеров). Перед использованием ссылки прочтите, пожалуйста Пользовательское соглашение, а также как можно дольше оставайтесь на раздаче! Для того, чтобы скачать сам торрент-файл (который видит больше источников), а также для того, чтобы поблагодарить релизера, вам необходимо зарегистрироваться. Если регистрироваться лень - вы можете также попробовать скачать релиз по нашим партнерским ссылкам ниже. Кроме того, зарегистрированным пользователям не показывается всплывающая реклама при скачивании.

[underver.se].t227641.torrent
Трекер: Зарегистрирован   [ 24.11.2021 11:04 ]  

Статус: проверено (by makkol at 24.11.2021 11:05)
Поблагодарили: пока никто не поблагодарил...
Тип торрента: публичный - доступные источники с открытых трекеров: 
Размер: 5,2 GB (занимает 1,19 DVDR, для записи нужно 2 болванки DVDR/RW)
 
 
Похожие темы
Форум Тема Автор Торрент Отв. Посл. сооб.
Зарубежное кино [DVDRip, Low-Res HDRip, и т.д.] Удары / Bruised (Холли Берри) [2020 г., драма, спорт, WEB-DLRip] Dub (Невафильм) + Sub makkol
7 | 2

0 | 95

7

24.11.2021 10:59


Яндекс.Метрика powered by Sphinx


В Н И М А Н И Е
Сайт не распространяет и не хранит электронные версии произведений, а лишь бесплатно и без коммерческой выгоды (не требуя взамен платы,
SMS и т.д.) предоставляет доступ к создаваемому пользователями каталогу ссылок на торрент-файлы, которые содержат только списки хеш-сумм.
Убедительная просьба с жалобами обращаться напрямую к пользователю, разместившему торрент файл.

Вверх