Loading...
Error

Астероид / Asteroid (Дилан Эйвери) [2021 г., драма, WEB-DL 720p] DVO (Синема УС)

Статистика раздачи
Размер:  3,46 GB   |    Зарегистрирован:  11 дней   |    Скачан:  11 раз
Сидов:  1  |  0 KB/s  ]   Личеров:  0  |  0 KB/s  ]

* - сиды/пиры с внешних источников

   
 
Автор Сообщение

makkol Пол:Муж

25-Ноя-2021 11:21

Астероид / Asteroid


Год выпуска: 2021
Жанр: драма
Страна: США
Режиссер: Дилан Эйвери
В ролях: Кайл Кервин, Мэтти Джо Каусерт, Майли Роуз, ЛеДжон Вудс, Ричард Уэддингхэм, Элиз Ровински, Анджела Релусио, Бристоль Померой, Спенсер Шерри, Скотт Типтон
Сюжет фильма:
Спенсер перевозит свою семью в маленький городок, чтобы начать жизнь заново, но все его планы разрушает астероид, который, по прогнозу НАСА, в скором времени упадёт именно на его дом.

  • Мировая премьера: 11 сентября 2021


Качество видео: WEB-DL 720p

Продолжительность: 01:27:31
Формат: MKV
Видео: MPEG-4 AVC, 1280x670, 23.976 fps, 5161 kbps
Аудио: русский, любительский двухголосый закадровый (Синема УС), AC3 2.0, 48 kHz, 384 kbps

Код:

Общее
Полное имя                               : Asteroid.2021.WEB-DLRip.720p-LQ.mkv
Формат                                   : Matroska
Версия формата                           : Version 2
Размер файла                             : 3,46 Гбайт
Продолжительность                        : 1 ч. 27 м.
Режим общего битрейта                    : Переменный
Общий поток                              : 5 658 Кбит/сек
Программа кодирования                    : libmatroska 1.4.1
Библиотека кодирования                   : SolveigMM Matroska Muxer Version 1.0.1904.23

Видео
Идентификатор                            : 1
Формат                                   : AVC
Формат/Информация                        : Advanced Video Codec
Профиль формата                          : High@L4.1
Настройки формата                        : CABAC / 4 Ref Frames
Параметр CABAC формата                   : Да
Параметр RefFrames формата               : 4 кадра
Идентификатор кодека                     : V_MPEG4/ISO/AVC
Продолжительность                        : 1 ч. 27 м.
Вид битрейта                             : Переменный
Битрейт                                  : 5 161 Кбит/сек
Номинальный битрейт                      : 6 000 Кбит/сек
Максимальный битрейт                     : 6 000 Кбит/сек
Ширина                                   : 1 280 пикселей
Высота                                   : 670 пикселей
Соотношение сторон                       : 1,910
Режим частоты кадров                     : Постоянный
Частота кадров                           : 23,976 (24000/1001) кадра/сек
Стандарт вещания                         : Component
Цветовое пространство                    : YUV
Субдискретизация насыщенности            : 4:2:0
Битовая глубина                          : 8 бит
Тип развёртки                            : Прогрессивная
Бит/(Пиксели*Кадры)                      : 0.251
Размер потока                            : 3,16 Гбайт (91%)
Default                                  : Нет
Forced                                   : Нет
Цветовой диапазон                        : Limited
Основные цвета                           : BT.709
Характеристики трансфера                 : BT.709
Коэффициенты матрицы                     : BT.709

Аудио
Идентификатор                            : 2
Формат                                   : AC-3
Формат/Информация                        : Audio Coding 3
Коммерческое название                    : Dolby Digital
Идентификатор кодека                     : A_AC3
Продолжительность                        : 1 ч. 27 м.
Вид битрейта                             : Постоянный
Битрейт                                  : 384 Кбит/сек
Каналы                                   : 2 канала
Channel layout                           : L R
Частота                                  : 48,0 КГц
Частота кадров                           : 31,250 кадров/сек (1536 SPF)
Метод сжатия                             : С потерями
Размер потока                            : 240 Мбайт (7%)
Язык                                     : Russian
Service kind                             : Complete Main
Default                                  : Нет
Forced                                   : Нет

Этот торрент недоступен для скачивания без регистрации, однако доступен по публичной magnet-ссылке (источники с публичных трекеров). Перед использованием ссылки прочтите, пожалуйста Пользовательское соглашение, а также как можно дольше оставайтесь на раздаче! Для того, чтобы скачать сам торрент-файл (который видит больше источников), а также для того, чтобы поблагодарить релизера, вам необходимо зарегистрироваться. Если регистрироваться лень - вы можете также попробовать скачать релиз по нашим партнерским ссылкам ниже. Кроме того, зарегистрированным пользователям не показывается всплывающая реклама при скачивании.

[underver.se].t227667.torrent
Трекер: Зарегистрирован   [ 25.11.2021 11:21 ]  

Статус: T временная (by makkol at 25.11.2021 11:21)
Поблагодарили: пока никто не поблагодарил...
Тип торрента: публичный - доступные источники с открытых трекеров: 
Размер: 3,46 GB (занимает 0,79 DVDR, для записи нужно 1 болванка DVDR/RW)
 
 
Похожие темы
Форум Тема Автор Торрент Отв. Посл. сооб.
T Зарубежное кино [DVDRip, Low-Res HDRip, и т.д.] Астероид / Asteroid (Дилан Эйвери) [2021 г., драма, WEB-DLRip] DVO (Синема УС) makkol
2 | 0

0 | 173

12

25.11.2021 11:16


Яндекс.Метрика powered by Sphinx


В Н И М А Н И Е
Сайт не распространяет и не хранит электронные версии произведений, а лишь бесплатно и без коммерческой выгоды (не требуя взамен платы,
SMS и т.д.) предоставляет доступ к создаваемому пользователями каталогу ссылок на торрент-файлы, которые содержат только списки хеш-сумм.
Убедительная просьба с жалобами обращаться напрямую к пользователю, разместившему торрент файл.

Вверх