Loading...
Error

Охотник за разумом. Схватка / No Man of God (Эмбер Роуз Сили / Amber Rose Sealey) [2021, США, драма, криминал, детектив, биография, WEB-DLRip-AVC] Dub (IVI) + Original Eng + Sub Eng

Статистика раздачи
Размер:  1.48 GB   |    Зарегистрирован:  9 месяцев   |    Скачан:  8 раз

Полного источника не было: 8 дней

Сидов:  0  |  0 KB/s  ]   Личеров:  0  |  0 KB/s  ]

* - сиды/пиры с внешних источников

   
 
Автор Сообщение

K15 Пол:Муж

08-Дек-2021 11:58


Охотник за разумом. Схватка / No Man of God


Страна: США
Жанр: драма, криминал, детектив, биография
Год выпуска: 2021
Продолжительность: 01:40:21
Перевод: Профессиональный (дублированный) IVI
Субтитры: английские
Оригинальная аудиодорожка: английская
Режиссер: Эмбер Роуз Сили / Amber Rose Sealey
В ролях: Элайджа Вуд, Люк Кирби, У. Эрл Браун, Роберт Патрик, Алекса Палладино, Кристиан Клименсон, Мак Брандт, Хьюго Армстронг, Эмили Берри, Уилл Харрис
Описание: Аналитик ФБР Билл Хагмайер в рамках нового исследования поведения серийных убийц проводит ряд интервью с Тедом Банди, который убил более 20 женщин. Харизматичная натура преступника начинает искажать восприятие агента. С каждой встречей ему всю сложнее оставаться объективным и не поддаваться очарованию Банди.

Качество видео: WEB-DLRip-AVC / WEB-DL 1080p
Формат видео: MKV
Видео: MPEG-4 AVC, 976x404 (2.40:1), 23.976 fps, ~1487 kbps avg, 0.157 bit/pixel
Аудио 1: 48 kHz, AC3 Dolby Digital, 2/0 (L,R) ch, ~192 kbps avg IVI
Аудио 2: 48 kHz, AC3 Dolby Digital, 3/2 (L,C,R,l,r) + LFE ch, ~384 kbps avg Original
 

Код:

Complete name               : E:\Охотник за разумом. Схватка (2021) WEB-DLRip-AVC__ivanes.mkv
Format                      : Matroska
Format version              : Version 2
File size                   : 1.48 GiB
Duration                    : 1 h 40 min
Overall bit rate            : 2 105 kb/s
Movie name                  : Охотник за разумом. Схватка (2021) WEB-DLRip-AVC__ivanes
Encoded date                : UTC 2021-09-19 18:25:08
Writing application         : mkvmerge v4.4.0 ('Die Wiederkehr') сборка от Jan  3 2011 21:40:45
Writing library             : libebml v1.0.0 + libmatroska v1.0.0
Cover                       : Yes
Attachments                 : cover.jpg

Video
ID                          : 1
Format                      : AVC
Format/Info                 : Advanced Video Codec
Format profile              : [email protected]
Format settings             : CABAC / 13 Ref Frames
Format settings, CABAC      : Yes
Format settings, Reference  : 13 frames
Codec ID                    : V_MPEG4/ISO/AVC
Duration                    : 1 h 40 min
Bit rate                    : 1 487 kb/s
Width                       : 976 pixels
Height                      : 404 pixels
Display aspect ratio        : 2.40:1
Frame rate mode             : Constant
Frame rate                  : 23.976 (24000/1001) FPS
Color space                 : YUV
Chroma subsampling          : 4:2:0
Bit depth                   : 8 bits
Scan type                   : Progressive
Bits/(Pixel*Frame)          : 0.157
Stream size                 : 1.04 GiB (71%)
Title                       : Rip by ivanes
Writing library             : x264 core 164 r3065+55M 280faca t_mod_New [(8 & 10)[email protected] X86_64]
Encoding settings           : cabac=1 / ref=13 / deblock=1:-2:-1 / analyse=0x3:0x113 / me=umh / subme=10 / psy=1 / fade_compensate=0.00 / psy_rd=1.00:0.00 / mixed_ref=1 / me_range=32 / chroma_me=1 / trellis=2 / 8x8dct=1 / cqm=0 / deadzone=21,11 / fast_pskip=0 / chroma_qp_offset=-2 / threads=16 / lookahead_threads=3 / sliced_threads=0 / nr=0 / decimate=1 / interlaced=0 / bluray_compat=0 / constrained_intra=0 / fgo=0 / bframes=13 / b_pyramid=2 / b_adapt=2 / b_bias=0 / direct=1 / weightb=1 / open_gop=0 / weightp=2 / keyint=240 / keyint_min=23 / scenecut=40 / intra_refresh=0 / rc_lookahead=60 / rc=crf / mbtree=1 / crf=17.5000 / qcomp=0.65 / qpmin=0:0:0 / qpmax=69:69:69 / qpstep=4 / vbv_maxrate=50000 / vbv_bufsize=62500 / crf_max=0.0 / nal_hrd=none / filler=0 / ip_ratio=1.35 / aq=1:1.00 / aq-sensitivity=10.00 / aq-factor=1.00:1.00:1.00 / aq2=0 / aq3=0
Default                     : Yes
Forced                      : No
Statistics Tags Issue       : mkvmerge v42.0.0 ('Overtime') 64-bit 2021-09-19 18:24:25 / mkvmerge v4.4.0 ('Die Wiederkehr') сборка от Jan  3 2011 21:40:45 2021-09-19 18:25:08
FromStats_BitRate           : 1526912
FromStats_Duration          : 01:40:22.016000000
FromStats_FrameCount        : 144384
FromStats_StreamSize        : 1149386534

Audio #1
ID                          : 2
Format                      : AC-3
Format/Info                 : Audio Coding 3
Commercial name             : Dolby Digital
Codec ID                    : A_AC3
Duration                    : 1 h 40 min
Bit rate mode               : Constant
Bit rate                    : 192 kb/s
Channel(s)                  : 2 channels
Channel layout              : L R
Sampling rate               : 48.0 kHz
Frame rate                  : 31.250 FPS (1536 SPF)
Compression mode            : Lossy
Stream size                 : 138 MiB (9%)
Title                       : IVI
Language                    : Russian
Service kind                : Complete Main
Default                     : Yes
Forced                      : No

Audio #2
ID                          : 3
Format                      : AC-3
Format/Info                 : Audio Coding 3
Commercial name             : Dolby Digital
Codec ID                    : A_AC3
Duration                    : 1 h 40 min
Bit rate mode               : Constant
Bit rate                    : 384 kb/s
Channel(s)                  : 6 channels
Channel layout              : L R C LFE Ls Rs
Sampling rate               : 48.0 kHz
Frame rate                  : 31.250 FPS (1536 SPF)
Compression mode            : Lossy
Stream size                 : 276 MiB (18%)
Title                       : Original
Language                    : English
Service kind                : Complete Main
Default                     : No
Forced                      : No

Text
ID                          : 4
Format                      : UTF-8
Codec ID                    : S_TEXT/UTF8
Codec ID/Info               : UTF-8 Plain Text
Title                       : Full
Language                    : English
Default                     : No
Forced                      : No

Этот торрент недоступен для скачивания без регистрации, однако доступен по публичной magnet-ссылке (источники с публичных трекеров). Перед использованием ссылки прочтите, пожалуйста Пользовательское соглашение, а также как можно дольше оставайтесь на раздаче! Для того, чтобы скачать сам торрент-файл (который видит больше источников), а также для того, чтобы поблагодарить релизера, вам необходимо зарегистрироваться. Если регистрироваться лень - вы можете также попробовать скачать релиз по нашим партнерским ссылкам ниже. Кроме того, зарегистрированным пользователям не показывается всплывающая реклама при скачивании.

[underver.se].t229513.torrent
Трекер: Зарегистрирован   [ 08.12.2021 11:58 ]  
Статус: проверено (by K15 at 09.12.2021 03:45)
Поблагодарили: пока никто не поблагодарил...
Тип торрента: публичный - доступные источники с открытых трекеров: 
Размер: 1.48 GB (занимает 0.34 DVDR, для записи нужно 1 болванка DVDR/RW)
 
 

Яндекс.Метрика powered by Sphinx


В Н И М А Н И Е
Сайт не распространяет и не хранит электронные версии произведений, а лишь бесплатно и без коммерческой выгоды (не требуя взамен платы,
SMS и т.д.) предоставляет доступ к создаваемому пользователями каталогу ссылок на торрент-файлы, которые содержат только списки хеш-сумм.
Убедительная просьба с жалобами обращаться напрямую к пользователю, разместившему торрент файл.

Вверх