Loading...
Error

Никто не хотел умирать (Витаутас Жалакявичюс) [1965, Драма, боевик, вестерн, HDTVRip-AVC] Dub («Ленфильм») + Original (Lit)

Статистика раздачи
Размер:  1.39 GB   |    Зарегистрирован:  8 месяцев   |    Скачан:  9 раз
Сидов:  1  |  0 KB/s  ]   Личеров:  0  |  0 KB/s  ]

* - сиды/пиры с внешних источников

   
 
Автор Сообщение

cheloweck.dojdya Пол:Муж

30-Янв-2022 12:34

Никто не хотел умирать


Жанр: Драма, боевик, вестерн
Страна: СССР
Студия: Литовская киностудия
Год выпуска: 1965
Продолжительность: 01:40:17
Перевод: Профессиональный (дублированный) – к/с «Ленфильм»
Субтитры: русские (только на начальные литовские титры)
Оригинальная аудиодорожка: литовский

Режиссёр: Витаутас Жалакявичюс

В ролях: Донатас Банионис / Donatas Banionis, Казимирас Виткус / Kazimieras Vitkus, Регимантас Адомайтис / Regimantas Adomaitis, Юозас Будрайтис / Juozas Budraitis, Альгимантас Масюлис / Algimantas Masiulis, Бруно Оя / Bruno Oja, Вия Артмане / Vija Artmane, Дангуоле Баукайте / Danguole Baukaitė, Эугения Шулгайте / Eugenija Šulgaitė, Антанас Шурна / Antanas Šurna, Бронюс Бабкаускас / Bronius Babkauskas, Лаймонас Норейка / Laimonas Noreika, Витаутас Томкус / Vytautas Tomkus, Антанас Барчас / Antanas Barčas, Генрикас Римейка / Henrikas Rimeika, Альгирдас Врубляускас / Algirdas Vrubleuskas, Она Алишаускайте / Ona Ališauskaitė, Регина Зданавичюте / Regina Zdanavičiutė

Описание: Действие происходит в 1947 году после окончания войны, в период становления Советской власти в Литве, в деревне. Убит Локис, председатель сельского совета, пятый - за этот год. Убит он соратниками «Домового», которые являются противниками Советской власти. Сыновья Локиса клянутся отомстить. А на место Локиса насильно посажен Вайткус, бывший «лесной брат»...

Rip by pmv

IMDb 7,9/10 (552)
Кинопоиск 7.819 (1105)

Качество видео: HDTVRip-AVC
Формат видео: MKV
Видео: AVC (H264), [email protected] (2.35:1), 25 fps, 1600 kb/s, 0.214 Bits/Pixel
Аудио #1: Dolby AC3, 48 kHz, stereo (2 ch), 192 kbps – русский
Аудио #2: Dolby AC3, 48 kHz, stereo (2 ch), 192 kbps – литовский
General
Unique ID : 233163019075413341974580702601465617177 (0xAF699064AB99AF46B6FF3C8E5718DB19)
Complete name : D:\torrents\Никто не хотел умирать (1965, рус_дубл+литовский).mkv
Format : Matroska
Format version : Version 4 / Version 2
File size : 1.39 GiB
Duration : 1 h 40 min
Overall bit rate : 1 987 kb/s
Encoded date : UTC 2018-11-10 01:06:10
Writing application : mkvmerge v28.2.0 ('The Awakening') 64-bit
Writing library : libebml v1.3.6 + libmatroska v1.4.9

Video
ID : 1
Format : AVC
Format/Info : Advanced Video Codec
Format profile : [email protected]
Format settings, CABAC : Yes
Format settings, RefFrames : 16 frames
Codec ID : V_MPEG4/ISO/AVC
Duration : 1 h 40 min
Bit rate : 1 600 kb/s
Width : 704 pixels
Height : 424 pixels
Display aspect ratio : 2.35:1
Original display aspect ratio : 5:3
Frame rate mode : Constant
Frame rate : 25.000 FPS
Color space : YUV
Chroma subsampling : 4:2:0
Bit depth : 8 bits
Scan type : Progressive
Bits/(Pixel*Frame) : 0.214
Stream size : 1.12 GiB (81%)
Writing library : x264 core 130 r2273 b3065e6
Encoding settings : cabac=1 / ref=16 / deblock=1:0:0 / analyse=0x3:0x133 / me=umh / subme=10 / psy=1 / psy_rd=1.00:0.00 / mixed_ref=1 / me_range=24 / chroma_me=1 / trellis=2 / 8x8dct=1 / cqm=0 / deadzone=21,11 / fast_pskip=1 / chroma_qp_offset=-2 / threads=48 / lookahead_threads=3 / sliced_threads=0 / nr=0 / decimate=1 / interlaced=0 / bluray_compat=0 / constrained_intra=0 / bframes=8 / b_pyramid=2 / b_adapt=2 / b_bias=0 / direct=3 / weightb=1 / open_gop=0 / weightp=2 / keyint=250 / keyint_min=25 / scenecut=40 / intra_refresh=0 / rc_lookahead=60 / rc=2pass / mbtree=1 / bitrate=1600 / ratetol=1.0 / qcomp=0.60 / qpmin=0 / qpmax=69 / qpstep=4 / cplxblur=20.0 / qblur=0.5 / ip_ratio=1.40 / aq=1:1.00
Language : Lithuanian
Default : Yes
Forced : No

Audio #1
ID : 2
Format : AC-3
Format/Info : Audio Coding 3
Format settings, Endianness : Big
Codec ID : A_AC3
Duration : 1 h 40 min
Bit rate mode : Constant
Bit rate : 192 kb/s
Channel(s) : 2 channels
Channel positions : Front: L R
Sampling rate : 48.0 kHz
Frame rate : 31.250 FPS (1536 SPF)
Bit depth : 16 bits
Compression mode : Lossy
Stream size : 138 MiB (10%)
Language : Russian
Service kind : Complete Main
Default : Yes
Forced : No

Audio #2
ID : 3
Format : AC-3
Format/Info : Audio Coding 3
Format settings, Endianness : Big
Codec ID : A_AC3
Duration : 1 h 40 min
Bit rate mode : Constant
Bit rate : 192 kb/s
Channel(s) : 2 channels
Channel positions : Front: L R
Sampling rate : 48.0 kHz
Frame rate : 31.250 FPS (1536 SPF)
Bit depth : 16 bits
Compression mode : Lossy
Stream size : 138 MiB (10%)
Language : Lithuanian
Service kind : Complete Main
Default : No
Forced : No

Text
ID : 4
Format : UTF-8
Codec ID : S_TEXT/UTF8
Codec ID/Info : UTF-8 Plain Text
Duration : 1 h 39 min
Bit rate : 2 b/s
Count of elements : 17
Stream size : 1.80 KiB (0%)
Language : Russian
Default : Yes
Forced : No


Этот торрент недоступен для скачивания без регистрации, однако доступен по публичной magnet-ссылке (источники с публичных трекеров). Перед использованием ссылки прочтите, пожалуйста Пользовательское соглашение, а также как можно дольше оставайтесь на раздаче! Для того, чтобы скачать сам торрент-файл (который видит больше источников), а также для того, чтобы поблагодарить релизера, вам необходимо зарегистрироваться. Если регистрироваться лень - вы можете также попробовать скачать релиз по нашим партнерским ссылкам ниже. Кроме того, зарегистрированным пользователям не показывается всплывающая реклама при скачивании.

[underver.se].t234153.torrent
Трекер: Зарегистрирован   [ 30.01.2022 12:34 ]  
Статус: проверено (by 90ytr90 at 31.01.2022 08:48)
Поблагодарили: 1 человек
Тип торрента: публичный - доступные источники с открытых трекеров: 
Размер: 1.39 GB (занимает 0.32 DVDR, для записи нужно 1 болванка DVDR/RW)
 
 

Яндекс.Метрика powered by Sphinx


В Н И М А Н И Е
Сайт не распространяет и не хранит электронные версии произведений, а лишь бесплатно и без коммерческой выгоды (не требуя взамен платы,
SMS и т.д.) предоставляет доступ к создаваемому пользователями каталогу ссылок на торрент-файлы, которые содержат только списки хеш-сумм.
Убедительная просьба с жалобами обращаться напрямую к пользователю, разместившему торрент файл.

Вверх