Loading...
Error

Бэтмен / The Batman (Мэтт Ривз) [2022, Боевик, драма, криминал, детектив, WEB-DLRip-AVC] MVO (Jaskier) + MVO (HDRezka Studio) + Eng

Статистика раздачи
Размер:  3.75 GB   |    Зарегистрирован:  5 месяцев 12 дней   |    Скачан:  130 раз
Сидов:  3  |  0 KB/s  ]   Личеров:  0  |  0 KB/s  ]

* - сиды/пиры с внешних источников

   
 
Автор Сообщение

cheloweck.dojdya Пол:Муж

21-Апр-2022 17:29

Бэтмен / The Batman


Год выпуска: 2022
Жанр: Боевик, драма, криминал, детектив
Страна: США
Выпущено: Warner Bros.6th & Idaho Productions, DC Comics
Перевод 1: Профессиональный многоголосый | Jaskier
Перевод 2: Профессиональный многоголосый | HDRezka Studio
Субтитры: Русские (Forced, full), английские
Продолжительность: 02:56:12

Режиссер: Мэтт Ривз

В ролях: Роберт Паттинсон, Зои Кравиц, Колин Фаррелл, Джеффри Райт, Пол Дано, Джейми Лоусон, Энди Серкис, Джон Туртурро, Питер Сарсгаард, Кон О’Нилл, Макс Карвер, Чарли Карвер, Марк Киллин
Сюжет фильма:
Два года борьбы с преступностью под маской Бэтмена приводят Брюса Уэйна в самые темные закоулки Готэм-сити. Когда объявляется загадочный убийца, угрожающий элите города, Бэтмен погружается в недра криминального мира, где на его пути оказывается Женщина-кошка Селина Кайл, Освальд Кобблпот, известный как Пингвин, Кармайн Фальконе и Эдвард Нэштон — он же Загадочник. С помощью своих союзников — Альфреда Пенниворта и лейтенанта Джеймса Гордона — Уэйну предстоит разоблачить злодея и восстановить справедливость среди коррумпированной власти, отравляющей жизнь Готэма.



Формат: MKV
Качество: WEB-DLRip-AVC
Видео: 1040x436 at 23.976 fps, [email protected], ~1896 kbps
Аудио 1: AC3, 6 ch, ~384 kbps - | Русский | - MVO | Jaskier
Аудио 2: AC3, 6 ch, ~384 kbps - | Русский | - MVO | HDRezka Studio
Аудио 3: AC3, 6 ch, ~384 kbps - | Английский |
Формат субтитров: softsub (SRT)
Реклама: Нет
x264 [info]: frame I:1904 Avg QP:13.24 size: 53082
x264 [info]: frame P:45969 Avg QP:14.59 size: 22387
x264 [info]: frame B:205600 Avg QP:16.99 size: 6690

General
Unique ID : 46199577498100529242569265396181130250 (0x22C1B7086A69DE9A2FE5558053745C0A)
Complete name : L:The.Batman.2022.MVOx2.WEB-DLRip.x264.mkv
Format : Matroska
Format version : Version 4
File size : 3.75 GiB
Duration : 2 h 56 min
Overall bit rate : 3 051 kb/s
Encoded date : UTC 2022-04-21 09:10:18
Writing application : mkvmerge v63.0.0 ('Everything') 64-bit
Writing library : libebml v1.4.2 + libmatroska v1.6.4
Cover : Yes
Attachments : cover.jpg / cover 2.jpg

Video
ID : 1
Format : AVC
Format/Info : Advanced Video Codec
Format profile : [email protected]
Format settings : CABAC / 10 Ref Frames
Format settings, CABAC : Yes
Format settings, Reference : 10 frames
Codec ID : V_MPEG4/ISO/AVC
Duration : 2 h 56 min
Bit rate : 1 896 kb/s
Width : 1 040 pixels
Height : 436 pixels
Display aspect ratio : 2.40:1
Frame rate mode : Constant
Frame rate : 23.976 (24000/1001) FPS
Color space : YUV
Chroma subsampling : 4:2:0
Bit depth : 8 bits
Scan type : Progressive
Bits/(Pixel*Frame) : 0.174
Stream size : 2.33 GiB (62%)
Title : -=DoMiNo=-
Writing library : x264 core 164 r3094 bfc87b7
Encoding settings : cabac=1 / ref=10 / deblock=1:-2:-2 / analyse=0x3:0x133 / me=umh / subme=10 / psy=1 / psy_rd=1.05:0.15 / mixed_ref=1 / me_range=32 / chroma_me=1 / trellis=2 / 8x8dct=1 / cqm=0 / deadzone=21,11 / fast_pskip=0 / chroma_qp_offset=-3 / threads=17 / lookahead_threads=3 / sliced_threads=0 / nr=0 / decimate=1 / interlaced=0 / bluray_compat=0 / constrained_intra=0 / bframes=10 / b_pyramid=2 / b_adapt=2 / b_bias=0 / direct=1 / weightb=1 / open_gop=0 / weightp=2 / keyint=250 / keyint_min=23 / scenecut=40 / intra_refresh=0 / rc_lookahead=60 / rc=crf / mbtree=0 / crf=18.0 / qcomp=0.60 / qpmin=0 / qpmax=69 / qpstep=4 / vbv_maxrate=50000 / vbv_bufsize=62500 / crf_max=0.0 / nal_hrd=none / filler=0 / ip_ratio=1.35 / pb_ratio=1.25 / aq=1:0.90
Language : English
Default : Yes
Forced : No
Color range : Limited
Color primaries : BT.709
Transfer characteristics : BT.709

Audio #1
ID : 2
Format : AC-3
Format/Info : Audio Coding 3
Commercial name : Dolby Digital
Codec ID : A_AC3
Duration : 2 h 56 min
Bit rate mode : Constant
Bit rate : 384 kb/s
Channel(s) : 6 channels
Channel layout : L R C LFE Ls Rs
Sampling rate : 48.0 kHz
Frame rate : 31.250 FPS (1536 SPF)
Compression mode : Lossy
Stream size : 484 MiB (13%)
Title : MVO_Jaskier
Language : Russian
Service kind : Complete Main
Default : Yes
Forced : No

Audio #2
ID : 3
Format : AC-3
Format/Info : Audio Coding 3
Commercial name : Dolby Digital
Codec ID : A_AC3
Duration : 2 h 56 min
Bit rate mode : Constant
Bit rate : 384 kb/s
Channel(s) : 6 channels
Channel layout : L R C LFE Ls Rs
Sampling rate : 48.0 kHz
Frame rate : 31.250 FPS (1536 SPF)
Compression mode : Lossy
Stream size : 484 MiB (13%)
Title : MVO_HDRezka Studio
Language : Russian
Service kind : Complete Main
Default : No
Forced : No

Audio #3
ID : 4
Format : AC-3
Format/Info : Audio Coding 3
Commercial name : Dolby Digital
Codec ID : A_AC3
Duration : 2 h 56 min
Bit rate mode : Constant
Bit rate : 384 kb/s
Channel(s) : 6 channels
Channel layout : L R C LFE Ls Rs
Sampling rate : 48.0 kHz
Frame rate : 31.250 FPS (1536 SPF)
Compression mode : Lossy
Stream size : 484 MiB (13%)
Language : English
Service kind : Complete Main
Default : No
Forced : No

Text #1
ID : 5
Format : UTF-8
Codec ID : S_TEXT/UTF8
Codec ID/Info : UTF-8 Plain Text
Duration : 2 h 34 min
Bit rate : 3 b/s
Count of elements : 109
Stream size : 4.35 KiB (0%)
Title : Forced
Language : Russian
Default : Yes
Forced : No

Text #2
ID : 6
Format : UTF-8
Codec ID : S_TEXT/UTF8
Codec ID/Info : UTF-8 Plain Text
Duration : 2 h 44 min
Bit rate : 84 b/s
Count of elements : 1896
Stream size : 101 KiB (0%)
Title : Full
Language : Russian
Default : No
Forced : No

Text #3
ID : 7
Format : UTF-8
Codec ID : S_TEXT/UTF8
Codec ID/Info : UTF-8 Plain Text
Duration : 2 h 43 min
Bit rate : 45 b/s
Count of elements : 2040
Stream size : 54.7 KiB (0%)
Title : Full
Language : English
Default : No
Forced : No

Text #4
ID : 8
Format : UTF-8
Codec ID : S_TEXT/UTF8
Codec ID/Info : UTF-8 Plain Text
Duration : 2 h 55 min
Bit rate : 53 b/s
Count of elements : 2573
Stream size : 69.3 KiB (0%)
Title : SDH
Language : English
Default : No
Forced : No

Menu
00:00:00.000 : :1
00:12:02.000 : :2
00:23:22.000 : :3
00:32:56.000 : :4
00:44:38.000 : :5
00:55:44.000 : :6
01:04:06.000 : :7
01:15:51.000 : :8
01:27:06.000 : :9
01:40:48.000 : :10
01:52:12.000 : :11
02:00:47.000 : :12
02:11:39.000 : :13
02:21:06.000 : :14
02:33:06.000 : :15
02:45:27.000 : :16




Этот торрент недоступен для скачивания без регистрации, однако доступен по публичной magnet-ссылке (источники с публичных трекеров). Перед использованием ссылки прочтите, пожалуйста Пользовательское соглашение, а также как можно дольше оставайтесь на раздаче! Для того, чтобы скачать сам торрент-файл (который видит больше источников), а также для того, чтобы поблагодарить релизера, вам необходимо зарегистрироваться. Если регистрироваться лень - вы можете также попробовать скачать релиз по нашим партнерским ссылкам ниже. Кроме того, зарегистрированным пользователям не показывается всплывающая реклама при скачивании.

[underver.se].t240574.torrent
Трекер: Зарегистрирован   [ 21.04.2022 17:29 ]  
Статус: проверено (by Robbertta at 22.04.2022 03:59)
Поблагодарили: 1 человек
Тип торрента: публичный - доступные источники с открытых трекеров: 
Размер: 3.75 GB (занимает 0.86 DVDR, для записи нужно 1 болванка DVDR/RW)
 
 

Яндекс.Метрика powered by Sphinx


В Н И М А Н И Е
Сайт не распространяет и не хранит электронные версии произведений, а лишь бесплатно и без коммерческой выгоды (не требуя взамен платы,
SMS и т.д.) предоставляет доступ к создаваемому пользователями каталогу ссылок на торрент-файлы, которые содержат только списки хеш-сумм.
Убедительная просьба с жалобами обращаться напрямую к пользователю, разместившему торрент файл.

Вверх