Loading...
Error

Бэтмен / The Batman (Мэтт Ривз) [2022, Боевик, драма, криминал, детектив, WEB-DLRip-AVC] MVO (HDRezka Studio) + Sub

Статистика раздачи
Размер:  1.45 GB   |    Зарегистрирован:  5 месяцев 12 дней   |    Скачан:  132 раза
Сидов:  1  |  0 KB/s  ]   Личеров:  0  |  0 KB/s  ]

* - сиды/пиры с внешних источников

   
 
Автор Сообщение

cheloweck.dojdya Пол:Муж

21-Апр-2022 20:31

Бэтмен / The Batman


Название: Бэтмен
Оригинальное название: The Batman
Год выхода: 2022
Жанр: Боевик, драма, криминал, детектив
Страна: США
Студия: Warner Bros.6th & Idaho Productions, DC Comics
Продолжительность: 02:56:12
Перевод: Профессиональный многоголосый | HDRezka Studio
Субтитры: Русские (Forced, full), английские

Режиссер: Мэтт Ривз

В ролях: Роберт Паттинсон, Зои Кравиц, Колин Фаррелл, Джеффри Райт, Пол Дано, Джейми Лоусон, Энди Серкис, Джон Туртурро, Питер Сарсгаард, Кон О’Нилл, Макс Карвер, Чарли Карвер, Марк Киллин

О фильме: Два года борьбы с преступностью под маской Бэтмена приводят Брюса Уэйна в самые темные закоулки Готэм-сити. Когда объявляется загадочный убийца, угрожающий элите города, Бэтмен погружается в недра криминального мира, где на его пути оказывается Женщина-кошка Селина Кайл, Освальд Кобблпот, известный как Пингвин, Кармайн Фальконе и Эдвард Нэштон — он же Загадочник. С помощью своих союзников — Альфреда Пенниворта и лейтенанта Джеймса Гордона — Уэйну предстоит разоблачить злодея и восстановить справедливость среди коррумпированной власти, отравляющей жизнь Готэма.

Формат: MKV
Качество: WEB-DLRip-AVC
Видео: 764x320 at 23.976 fps, [email protected], ~1083 kbps
Аудио: AAC, 2 ch, ~96 kbps - | Русский |
Формат субтитров: softsub (SRT)
x264 info: frame I:2107 Avg QP:11.12 size: 38293
x264 info: frame P:48390 Avg QP:14.21 size: 13406
x264 info: frame B:202976 Avg QP:16.52 size: 3458

General
Unique ID : 67039694459339125305536126593080790747 (0x326F6020E933F400C48FFE938C7C8EDB)
Complete name : I:The.Batman.2022.WEB-DLRip.x264.mkv
Format : Matroska
Format version : Version 4
File size : 1.45 GiB
Duration : 2 h 56 min
Overall bit rate : 1 181 kb/s
Encoded date : UTC 2022-04-19 12:37:35
Writing application : mkvmerge v63.0.0 ('Everything') 64-bit
Writing library : libebml v1.4.2 + libmatroska v1.6.4
Cover : Yes
Attachments : cover.jpg / cover 2.jpg

Video
ID : 1
Format : AVC
Format/Info : Advanced Video Codec
Format profile : [email protected]
Format settings : CABAC / 12 Ref Frames
Format settings, CABAC : Yes
Format settings, Reference : 12 frames
Codec ID : V_MPEG4/ISO/AVC
Duration : 2 h 56 min
Bit rate : 1 083 kb/s
Width : 764 pixels
Height : 320 pixels
Display aspect ratio : 2.40:1
Frame rate mode : Constant
Frame rate : 23.976 (24000/1001) FPS
Color space : YUV
Chroma subsampling : 4:2:0
Bit depth : 8 bits
Scan type : Progressive
Bits/(Pixel*Frame) : 0.185
Stream size : 1.33 GiB (92%)
Title : -=DoMiNo=-
Writing library : x264 core 163 r3060 5db6aa6
Encoding settings : cabac=1 / ref=12 / deblock=1:-2:-1 / analyse=0x3:0x133 / me=umh / subme=10 / psy=1 / psy_rd=1.00:0.15 / mixed_ref=1 / me_range=32 / chroma_me=1 / trellis=2 / 8x8dct=1 / cqm=0 / deadzone=21,11 / fast_pskip=0 / chroma_qp_offset=-3 / threads=17 / lookahead_threads=2 / sliced_threads=0 / nr=0 / decimate=0 / interlaced=0 / bluray_compat=0 / constrained_intra=0 / bframes=10 / b_pyramid=2 / b_adapt=2 / b_bias=0 / direct=3 / weightb=1 / open_gop=0 / weightp=2 / keyint=240 / keyint_min=24 / scenecut=40 / intra_refresh=0 / rc_lookahead=80 / rc=2pass / mbtree=0 / bitrate=1083 / ratetol=1.0 / qcomp=0.60 / qpmin=0 / qpmax=69 / qpstep=4 / cplxblur=20.0 / qblur=0.5 / vbv_maxrate=50000 / vbv_bufsize=62500 / nal_hrd=none / filler=0 / ip_ratio=1.40 / pb_ratio=1.30 / aq=2:1.00
Language : English
Default : Yes
Forced : No
Color range : Limited
Color primaries : BT.709
colour_primaries_Original : BT.709
Transfer characteristics : BT.709
transfer_characteristics_Or : BT.709
Matrix coefficients : BT.709
matrix_coefficients_Origina : BT.709

Audio
ID : 2
Format : AAC LC SBR
Format/Info : Advanced Audio Codec Low Complexity with Spectral Band Replication
Commercial name : HE-AAC
Format settings : Implicit
Codec ID : A_AAC-2
Duration : 2 h 56 min
Bit rate : 96.0 kb/s
Channel(s) : 2 channels
Channel layout : L R
Sampling rate : 48.0 kHz
Frame rate : 23.438 FPS (2048 SPF)
Compression mode : Lossy
Stream size : 121 MiB (8%)
Title : MVO [HDRezka Studio]
Language : Russian
Default : Yes
Forced : No

Text #1
ID : 3
Format : UTF-8
Codec ID : S_TEXT/UTF8
Codec ID/Info : UTF-8 Plain Text
Duration : 2 h 34 min
Bit rate : 3 b/s
Count of elements : 109
Stream size : 4.35 KiB (0%)
Title : Forced
Language : Russian
Default : Yes
Forced : No

Text #2
ID : 4
Format : UTF-8
Codec ID : S_TEXT/UTF8
Codec ID/Info : UTF-8 Plain Text
Duration : 2 h 44 min
Bit rate : 84 b/s
Count of elements : 1896
Stream size : 101 KiB (0%)
Title : Full
Language : Russian
Default : No
Forced : No

Text #3
ID : 5
Format : UTF-8
Codec ID : S_TEXT/UTF8
Codec ID/Info : UTF-8 Plain Text
Duration : 2 h 43 min
Bit rate : 45 b/s
Count of elements : 2040
Stream size : 54.7 KiB (0%)
Title : Full
Language : English
Default : No
Forced : No

Text #4
ID : 6
Format : UTF-8
Codec ID : S_TEXT/UTF8
Codec ID/Info : UTF-8 Plain Text
Duration : 2 h 55 min
Bit rate : 53 b/s
Count of elements : 2573
Stream size : 69.3 KiB (0%)
Title : SDH
Language : English
Default : No
Forced : No

Menu
00:00:00.000 : :1
00:12:02.000 : :2
00:23:22.000 : :3
00:32:56.000 : :4
00:44:38.000 : :5
00:55:44.000 : :6
01:04:06.000 : :7
01:15:51.000 : :8
01:27:06.000 : :9
01:40:48.000 : :10
01:52:12.000 : :11
02:00:47.000 : :12
02:11:39.000 : :13
02:21:06.000 : :14
02:33:06.000 : :15
02:45:27.000 : :16




Этот торрент недоступен для скачивания без регистрации, однако доступен по публичной magnet-ссылке (источники с публичных трекеров). Перед использованием ссылки прочтите, пожалуйста Пользовательское соглашение, а также как можно дольше оставайтесь на раздаче! Для того, чтобы скачать сам торрент-файл (который видит больше источников), а также для того, чтобы поблагодарить релизера, вам необходимо зарегистрироваться. Если регистрироваться лень - вы можете также попробовать скачать релиз по нашим партнерским ссылкам ниже. Кроме того, зарегистрированным пользователям не показывается всплывающая реклама при скачивании.

[underver.se].t240578.torrent
Трекер: Зарегистрирован   [ 21.04.2022 20:31 ]  
Статус: проверено (by Robbertta at 22.04.2022 03:58)
Поблагодарили: 4 человека
Тип торрента: публичный - доступные источники с открытых трекеров: 
Размер: 1.45 GB (занимает 1/3 DVDR, для записи нужно 1 болванка DVDR/RW)
 
 

Яндекс.Метрика powered by Sphinx


В Н И М А Н И Е
Сайт не распространяет и не хранит электронные версии произведений, а лишь бесплатно и без коммерческой выгоды (не требуя взамен платы,
SMS и т.д.) предоставляет доступ к создаваемому пользователями каталогу ссылок на торрент-файлы, которые содержат только списки хеш-сумм.
Убедительная просьба с жалобами обращаться напрямую к пользователю, разместившему торрент файл.

Вверх