Loading...
Error

Оффлайн (1-10 серии из 10 + Фильм о фильме) (Кирилл Плетнёв) [2022 г., Триллер, детектив, драма, WEB-DLRip 720p]

Статистика раздачи
Размер:  14.73 GB   |    Зарегистрирован:  2 месяца 19 дней   |    Скачан:  22 раза

Полного источника не было: 8 часов

Сидов:  0  |  2 KB/s  ]   Личеров:  5  |  3 MB/s  ]

* - сиды/пиры с внешних источников

   
 
Автор Сообщение

Renesans Пол:Муж

12-Май-2022 17:56

Оффлайн


Год выпуска: 2022
Жанр: Триллер, детектив, драма
Режиссер: Кирилл Плетнёв
В главных ролях: Никита Ефремов, Денис Шведов, Никита Кологривый, Полина Максимова, Альфия Закирова, Марина Ворожищева, Алёна Константинова, Тина Стойилкович, Егор Кенжаметов, Игорь Черневич, Риналь Мухаметов, Полина Пушкарук, Алексей Шевченков, Дмитрий Ульянов, Анна Каменкова, Никита Карпинский, Павел Чернышев, Даниил Белых, Александр Фисенко, Алексей Коряков, Полина Айнутдинова, Василий Михайлов, Николай Хмелёв, Михаил Водзуми, Сергей Покопцев, Егор Ковалёв, Александр Комиссаров, Максим Линников, Сергей Легостаев, Александр Макаршин, Александр Мякушко, Геннадий Семёнов, Валентин Самохин, Евгений Харланов, Матвей Черных, Алексей Юдников, Серафим Долбунов, Константин Умрихин, Алёна Ицкова, Карина Шишлянникова

Описание:
BeHappy - секретное невидимое приложение, которое служит для покупки наркотиков через смартфон. Его пользователи сталкиваются с серьезным противником, который прячется под именем Анонимус. Он сообщает им, что сумел раскрыть данные всех, кто когда-либо пользовался этим приложением и теперь он дает им выбор - пойти в полицию и во всем признаться или сыграть в игру со смертью. Что будет, если в этой игре проиграть, становится ясно, когда пользователи BeHappy получают фото кладмена с перерезанным горлом.


Страна: Россия
Студия: BUBBLEGUM PRODUCTION по заказу Okko Studios
Продолжительность: 11 х ~ 00:52:00
Язык: Русский

Премьера: 27 апреля 2022 года
Примечание: Без рекламы
Версия 18+

Формат: MKV
Качество: WEB-DLRip 720p
Видео: MPEG-4 AVC, ~ 3200 Кбит/с, 1280x544
Аудио #01: AC3, 6 ch, 384 Кбит/с | C цензурой
Аудио #02: AC3, 6 ch, 384 Кбит/с | Без цензуры 18+
Субтитры: Отсутствуют
Семпл
Общее
Уникальный идентификатор : 122767507194811258204222563948842026222 (0x5C5C296DB8043576827A8FC6D27984EE)
Полное имя : D:Offlajn.S01.2022.WEB-DLRip.720pOfflajn.S01.E02.2022.WEB-DLRip.720p.mkv
Формат : Matroska
Версия формата : Version 4
Размер файла : 1,35 Гбайт
Продолжительность : 48 м. 50 с.
Общий поток : 3 967 Кбит/сек
Название фильма : Offlajn.S01.E02.2022.WEB-DLRip.720p
Дата кодирования : UTC 2022-04-26 22:57:38
Программа кодирования : mkvmerge v66.0.0 ('Josie') 64-bit
Библиотека кодирования : libebml v1.4.2 + libmatroska v1.6.4
Attachments : poster.jpg

Видео
Идентификатор : 1
Формат : AVC
Формат/Информация : Advanced Video Codec
Профиль формата : [email protected]
Настройки формата : CABAC / 3 Ref Frames
Параметр CABAC формата : Да
Параметр RefFrames формата : 3 кадра
Идентификатор кодека : V_MPEG4/ISO/AVC
Продолжительность : 48 м. 50 с.
Битрейт : 3 200 Кбит/сек
Ширина : 1 280 пикселей
Высота : 544 пикселя
Соотношение сторон : 2,35:1
Режим частоты кадров : Постоянный
Частота кадров : 25,000 кадров/сек
Цветовое пространство : YUV
Субдискретизация насыщенности : 4:2:0
Битовая глубина : 8 бит
Тип развёртки : Прогрессивная
Бит/(Пиксели*Кадры) : 0.184
Размер потока : 1,09 Гбайт (81%)
Библиотека кодирования : x264 core 161 r3048 b86ae3c
Настройки программы : cabac=1 / ref=2 / deblock=1:1:1 / analyse=0x3:0x133 / me=umh / subme=9 / psy=1 / psy_rd=0.40:1.00 / mixed_ref=1 / me_range=24 / chroma_me=1 / trellis=0 / 8x8dct=1 / cqm=0 / deadzone=21,11 / fast_pskip=1 / chroma_qp_offset=-2 / threads=17 / lookahead_threads=1 / sliced_threads=0 / nr=0 / decimate=1 / interlaced=0 / bluray_compat=0 / constrained_intra=0 / bframes=3 / b_pyramid=1 / b_adapt=1 / b_bias=0 / direct=3 / weightb=1 / open_gop=0 / weightp=2 / keyint=75 / keyint_min=38 / scenecut=0 / intra_refresh=0 / rc_lookahead=30 / rc=2pass / mbtree=1 / bitrate=3200 / ratetol=1.0 / qcomp=0.80 / qpmin=1 / qpmax=69 / qpstep=4 / cplxblur=20.0 / qblur=0.5 / vbv_maxrate=4800 / vbv_bufsize=6400 / nal_hrd=none / filler=0 / ip_ratio=1.40 / aq=1:1.00
Default : Да
Forced : Нет
Цветовой диапазон : Limited
Основные цвета : BT.709
Характеристики трансфера : BT.709
Коэффициенты матрицы : BT.709

Аудио #1
Идентификатор : 2
Формат : AC-3
Формат/Информация : Audio Coding 3
Коммерческое название : Dolby Digital
Идентификатор кодека : A_AC3
Продолжительность : 48 м. 50 с.
Вид битрейта : Постоянный
Битрейт : 384 Кбит/сек
Каналы : 6 каналов
Channel layout : L R C LFE Ls Rs
Частота : 48,0 КГц
Частота кадров : 31,250 кадров/сек (1536 SPF)
Метод сжатия : С потерями
Размер потока : 134 Мбайт (10%)
Заголовок : Censor
Язык : Russian
Service kind : Complete Main
Default : Да
Forced : Нет

Аудио #2
Идентификатор : 3
Формат : AC-3
Формат/Информация : Audio Coding 3
Коммерческое название : Dolby Digital
Идентификатор кодека : A_AC3
Продолжительность : 48 м. 50 с.
Вид битрейта : Постоянный
Битрейт : 384 Кбит/сек
Каналы : 6 каналов
Channel layout : L R C LFE Ls Rs
Частота : 48,0 КГц
Частота кадров : 31,250 кадров/сек (1536 SPF)
Метод сжатия : С потерями
Размер потока : 134 Мбайт (10%)
Заголовок : 18+
Язык : Russian
Service kind : Complete Main
Default : Нет
Forced : Нет

Этот торрент недоступен для скачивания без регистрации, однако доступен по публичной magnet-ссылке (источники с публичных трекеров). Перед использованием ссылки прочтите, пожалуйста Пользовательское соглашение, а также как можно дольше оставайтесь на раздаче! Для того, чтобы скачать сам торрент-файл (который видит больше источников), а также для того, чтобы поблагодарить релизера, вам необходимо зарегистрироваться. Если регистрироваться лень - вы можете также попробовать скачать релиз по нашим партнерским ссылкам ниже. Кроме того, зарегистрированным пользователям не показывается всплывающая реклама при скачивании.

[underver.se].t241683.torrent
Трекер: Зарегистрирован   [ 10.07.2022 16:10 ]  
Статус: проверено (by Robbertta at 10.07.2022 16:13)
Поблагодарили: 1 человек
Тип торрента: публичный - доступные источники с открытых трекеров: 
Размер: 14.73 GB (занимает 3.37 DVDR, для записи нужно 4 болванки DVDR/RW)
 
 


Последний раз редактировалось: Renesans (10.07.2022 16:08), всего редактировалось 2 раз(а)

Renesans Пол:Муж

20-Май-2022 04:38

Сегодня была добавлена 5-я серия сериала.
Прияятного всем прсомотра!

Renesans Пол:Муж

10-Июл-2022 16:09

* Добавлены 6-10 серии, а также добавлен фильм о фильме.

il68k Пол:Муж

12-Сен-2022 12:33

Если честно... даже не ожидал от РосКино...
совсем неплохо...

Cover

Яндекс.Метрика powered by Sphinx


В Н И М А Н И Е
Сайт не распространяет и не хранит электронные версии произведений, а лишь бесплатно и без коммерческой выгоды (не требуя взамен платы,
SMS и т.д.) предоставляет доступ к создаваемому пользователями каталогу ссылок на торрент-файлы, которые содержат только списки хеш-сумм.
Убедительная просьба с жалобами обращаться напрямую к пользователю, разместившему торрент файл.

Вверх