Loading...
Error

Постучись в мою дверь / Sen Cal Kapimi (Алтан Дёнмез, Эндер Михлар, Юсуф Пирхасан) (сезон 1, серии 1-39 из 39) [2020-2021, Мелодрама, комедия, WEB-DLRip 1080p] DVO (SesDizi)

Статистика раздачи
Размер:  62.52 GB   |    Зарегистрирован:  4 месяца 17 дней   |    Скачан:  8 раз

Полного источника не было: 1 час 7 минут

Сидов:  0  |  0 KB/s  ]   Личеров:  1  |  292 KB/s  ]

* - сиды/пиры с внешних источников

   
 
Автор Сообщение

cheloweck.dojdya Пол:Муж

12-Май-2022 21:27

Постучись в мою дверь / Sen Cal Kapimi


Производство: Турция / MF Yapım
Жанр: Мелодрама, комедия
Перевод: Двуголосый любительский (SesDizi)
Язык озвучки: Русский

Режиссер: Алтан Дёнмез, Эндер Михлар, Юсуф Пирхасан

В ролях: Ханде Эрчел, Керем Бюрсин, Биге Онал, Исмаил Эге Шашмаз, Эврим Доган, Анил Илтер, Чагры Чытанак, Эльчин Афаджан, Мелиса Дёнгель, М. Ситаре Акбаш и др.

Описание: Эда Йылдыз получила грант на обучение за границей. Однако в её планы вмешивается судьба! По стечению обстоятельств по вине Эды крупный бизнесмен Серкан Болат, предоставивший ей грант на учёбу, попадает в неловкую ситуацию и просит Эду два месяца побыть его невестой. Притворяясь женихом и невестой Серкан и Эда страстно и безумно влюбляются друг в друга. Но любовь сложна и именно поэтому она великолепна!

Rip by Ay Oasis

Продолжительность: ~ 02:00:00 серия
Качество видео: WEB-DLRip 1080p
Формат: MKV
Видео: AVC/H.264, 1920x1080 (16:9), ~1610 kbps
Аудио: AAC, 2 ch, 160 kbps
 
General
Unique ID : 74499367951218139398914534203922385 (0xE591A38B0B3B7833D9743A98317D1)
Complete name : J:\Sen Cal Kapimi.s01.WEB-DLRip1080p.SesDizi\Sen Cal Kapimi.s01.e01.WEB-DLRip1080p (Ay Oasis NNM-Club).mkv
Format : Matroska
Format version : Version 4
File size : 1.59 GiB
Duration : 2 h 9 min
Overall bit rate : 1 758 kb/s
Encoded date : UTC 2020-10-15 09:40:59
Writing application : mkvmerge v47.0.0 ('Black Flag') 64-bit
Writing library : libebml v1.3.10 + libmatroska v1.5.2

Video
ID : 1
Format : AVC
Format/Info : Advanced Video Codec
Format profile : [email protected]
Format settings : CABAC / 3 Ref Frames
Format settings, CABAC : Yes
Format settings, Reference fra : 3 frames
Codec ID : V_MPEG4/ISO/AVC
Duration : 2 h 8 min
Bit rate : 1 610 kb/s
Width : 1 920 pixels
Height : 1 080 pixels
Display aspect ratio : 16:9
Frame rate mode : Constant
Frame rate : 25.000 FPS
Color space : YUV
Chroma subsampling : 4:2:0
Bit depth : 8 bits
Scan type : Progressive
Bits/(Pixel*Frame) : 0.031
Stream size : 1.44 GiB (91%)
Writing library : x264 core 155 r2901 7d0ff22
Default : Yes
Forced : No
Color range : Limited
Color primaries : BT.709
Transfer characteristics : BT.709
Matrix coefficients : BT.709

Audio
ID : 2
Format : AAC LC
Format/Info : Advanced Audio Codec Low Complexity
Codec ID : A_AAC-2
Duration : 2 h 9 min
Bit rate : 160 kb/s
Channel(s) : 2 channels
Channel layout : L R
Sampling rate : 44.1 kHz
Frame rate : 43.066 FPS (1024 SPF)
Compression mode : Lossy
Stream size : 148 MiB (9%)
Default : Yes
Forced : No




Этот торрент недоступен для скачивания без регистрации, однако доступен по публичной magnet-ссылке (источники с публичных трекеров). Перед использованием ссылки прочтите, пожалуйста Пользовательское соглашение, а также как можно дольше оставайтесь на раздаче! Для того, чтобы скачать сам торрент-файл (который видит больше источников), а также для того, чтобы поблагодарить релизера, вам необходимо зарегистрироваться. Если регистрироваться лень - вы можете также попробовать скачать релиз по нашим партнерским ссылкам ниже. Кроме того, зарегистрированным пользователям не показывается всплывающая реклама при скачивании.

[underver.se].t241694.torrent
Трекер: Зарегистрирован   [ 12.05.2022 21:27 ]  
Статус: T временная (by Robbertta at 13.05.2022 03:56)
Поблагодарили: пока никто не поблагодарил...
Тип торрента: публичный - доступные источники с открытых трекеров: 
Размер: 62.52 GB (занимает 14.28 DVDR, для записи нужно 15 болванок DVDR/RW)
 
 

Яндекс.Метрика powered by Sphinx


В Н И М А Н И Е
Сайт не распространяет и не хранит электронные версии произведений, а лишь бесплатно и без коммерческой выгоды (не требуя взамен платы,
SMS и т.д.) предоставляет доступ к создаваемому пользователями каталогу ссылок на торрент-файлы, которые содержат только списки хеш-сумм.
Убедительная просьба с жалобами обращаться напрямую к пользователю, разместившему торрент файл.

Вверх