Loading...
Error

Никто не узнает (Дети) / Серии: 1-8 из 8 (Алёна Званцова) [2022, Драма, WEBRip]

Статистика раздачи
Размер:  5.17 GB   |    Зарегистрирован:  4 месяца 21 день   |    Скачан:  10 раз

Полного источника не было: 4 дня

Сидов:  0  |  0 KB/s  ]   Личеров:  0  |  0 KB/s  ]

* - сиды/пиры с внешних источников

   
 
Автор Сообщение

cheloweck.dojdya Пол:Муж

14-Май-2022 09:59

Никто не узнает (Дети)


Год выпуска: 2022
Страна: Россия
Жанр: драма
Продолжительность: ~ 00:48:00 серия
Субтитры: нет

Режиссёр: Алёна Званцова

В ролях: Евгения Брик, Кирилл Сафонов, Юрий Быков, Виктория Исакова, Олег Ягодин, Александр Робак, Яна Сексте, Арина Алтынова, Надежда Маркина, Кирилл Комаров, Виталий Коваленко, Дарья Урсуляк, Виталия Корниенко, Мария Малиновская, Мирослава Малышкина-Малиновская, Константин Желдин, Дмитрий Фрид, Тимур Абитов, Любовь Макеева, Владимир Носик, Михаил Сафронов, Елена Прудникова, Анастасия Имамова, Алексей Розин, Максим Битюков, Евгений Антропов, Анастасия Бирюкова, Владимир Капустин, Аглая Смирнова, Ольга Бешуля, Наталья Шабанова, Максим Солопов, Эдуард Горбенко, Вадим Норштейн, Николай Сердцев, Даниил Пулях, Анастасия Питель, Александр Вершинин

Описание: Восемь друзей, им уже под сорок, но во многом они еще, как дети: в свободное от своих успешных карьер время гоняют в футбол, ходят большой компанией в кино, живут в свое удовольствие. Но когда сердце подводит Игоря, и он теряет сознание прямо на улице, то решает во что бы то ни стало «подарить» жене ребенка. Есть лишь одна загвоздка: Игорь не может иметь детей. Впрочем, успешный чиновник найдет способ справиться с этим досадным недоразумением, ведь он может совладать со всем, кроме собственных чувств…

Кинопоиск Sample

Качество: WEBRip
Формат: AVI
Видео кодек: XviD
Аудио кодек: AC3
Видео: 720x400 (1.80:1), 25 fps, XviD ~1650 kbps avg, 0.229 bit/pixel
Аудио: AC3, 2 ch, 192 kbps, 16 bits, 48.0 kHz
General
Complete name : D:\Nikto.ne.uznaet.S01.WEB-DLRip.25Kuzmich\Nikto.ne.uznaet.s01.e01.WEB-DLRip.25Kuzmich.avi
Format : AVI
Format/Info : Audio Video Interleave
File size : 629 MiB
Duration : 47 min 28 s
Overall bit rate : 1 852 kb/s
Writing application : VirtualDubMod 1.5.10.3 | www.virtualdub-fr.org || (build 2550/release)
Writing library : VirtualDubMod build 2550/release

Video
ID : 0
Format : MPEG-4 Visual
Format profile : Advanced [email protected]
Format settings : BVOP1
Format settings, BVOP : 1
Format settings, QPel : No
Format settings, GMC : No warppoints
Format settings, Matrix : Default (MPEG)
Codec ID : XVID
Codec ID/Hint : XviD
Duration : 47 min 28 s
Bit rate : 1 650 kb/s
Width : 720 pixels
Height : 400 pixels
Display aspect ratio : 16:9
Frame rate : 25.000 FPS
Color space : YUV
Chroma subsampling : 4:2:0
Bit depth : 8 bits
Scan type : Progressive
Compression mode : Lossy
Bits/(Pixel*Frame) : 0.229
Stream size : 560 MiB (89%)
Writing library : XviD 73

Audio
ID : 1
Format : AC-3
Format/Info : Audio Coding 3
Codec ID : 2000
Duration : 47 min 28 s
Bit rate mode : Constant
Bit rate : 192 kb/s
Channel(s) : 2 channels
Channel positions : Front: L R
Sampling rate : 48.0 kHz
Frame rate : 31.250 FPS (1536 SPF)
Bit depth : 16 bits
Compression mode : Lossy
Stream size : 65.2 MiB (10%)
Alignment : Split accross interleaves
Interleave, duration : 40 ms (1.00 video frame)
Interleave, preload duratio : 500 ms
Service kind : Complete Main




Этот торрент недоступен для скачивания без регистрации, однако доступен по публичной magnet-ссылке (источники с публичных трекеров). Перед использованием ссылки прочтите, пожалуйста Пользовательское соглашение, а также как можно дольше оставайтесь на раздаче! Для того, чтобы скачать сам торрент-файл (который видит больше источников), а также для того, чтобы поблагодарить релизера, вам необходимо зарегистрироваться. Если регистрироваться лень - вы можете также попробовать скачать релиз по нашим партнерским ссылкам ниже. Кроме того, зарегистрированным пользователям не показывается всплывающая реклама при скачивании.

[underver.se].t241747.torrent
Трекер: Зарегистрирован   [ 14.05.2022 09:59 ]  
Статус: проверено (by Robbertta at 14.05.2022 11:22)
Поблагодарили: пока никто не поблагодарил...
Тип торрента: публичный - доступные источники с открытых трекеров: 
Размер: 5.17 GB (занимает 1.18 DVDR, для записи нужно 2 болванки DVDR/RW)
 
 

Яндекс.Метрика powered by Sphinx


В Н И М А Н И Е
Сайт не распространяет и не хранит электронные версии произведений, а лишь бесплатно и без коммерческой выгоды (не требуя взамен платы,
SMS и т.д.) предоставляет доступ к создаваемому пользователями каталогу ссылок на торрент-файлы, которые содержат только списки хеш-сумм.
Убедительная просьба с жалобами обращаться напрямую к пользователю, разместившему торрент файл.

Вверх