Loading...
Error

Бэтмен / The Batman (Мэтт Ривз) [2022, боевик, драма, криминал, детектив, BDRip 1080p] Dub (iTunes) + Original + Sub (Rus, Eng, Est, Lat, Lithua, Roman, Ukr)

Статистика раздачи
Размер:  16.97 GB   |    Зарегистрирован:  4 месяца 7 дней   |    Скачан:  48 раз

Полного источника не было: 1 день 7 часов

Сидов:  0  |  0 KB/s  ]   Личеров:  0  |  0 KB/s  ]

* - сиды/пиры с внешних источников

   
 
Автор Сообщение

garry Пол:Муж

27-Май-2022 16:52

Бэтмен / The Batman


Год выпуска: 2022
Жанр: боевик, драма, криминал, детектив
Страна: США
Режиссер: Мэтт Ривз
В ролях: Роберт Паттинсон, Зои Кравиц, Колин Фаррелл, Джеффри Райт, Пол Дано, Джейми Лоусон, Энди Серкис, Джон Туртурро, Питер Сарсгаард, Кон О’Нилл, Макс Карвер, Чарли Карвер, Марк Киллин
Сюжет фильма:
Два года борьбы с преступностью под маской Бэтмена приводят Брюса Уэйна в самые темные закоулки Готэм-сити. Когда объявляется загадочный убийца, угрожающий элите города, Бэтмен погружается в недра криминального мира, где на его пути оказывается Женщина-кошка Селина Кайл, Освальд Кобблпот, известный как Пингвин, Кармайн Фальконе и Эдвард Нэштон — он же Загадочник. С помощью своих союзников — Альфреда Пенниворта и лейтенанта Джеймса Гордона — Уэйну предстоит разоблачить злодея и восстановить справедливость среди коррумпированной власти, отравляющей жизнь Готэма.
Качество видео: BDRip 1080p

Продолжительность: 02:56:12
Формат: MKV
Видео: x264, 1920x804, ~12600 kbps, 23.976 fps
Аудио #1: русский, дублированный [iTunes], AC3 5.1, 384 kbps
Аудио #2: английский, оригинал, E-AC3 (DD+), 768 kbps
Субтитры #1-3: тип: вшитые отключаемые, русский (Forced, 2 x Full), формат: SRT
Субтитры #4: тип: вшитые отключаемые, английский, формат: SRT
Субтитры #5: тип: вшитые отключаемые, эстонский, формат: SRT
Субтитры #6: тип: вшитые отключаемые, латвийский, формат: SRT
Субтитры #7: тип: вшитые отключаемые, литовский, формат: SRT
Субтитры #8: тип: вшитые отключаемые, румынский, формат: SRT
Субтитры #9: тип: вшитые отключаемые, украинский, формат: SRT
Релиз группы: EniaHD
 
Complete name : The.Batman.2022.1080p.BluRay.x264-EniaHD.mkv
Format : Matroska
Format version : Version 4
File size : 17.0 GiB
Duration : 2 h 56 min
Overall bit rate : 13.8 Mb/s
Movie name : The Batman (2022) - EniaHD
Writing application : mkvmerge v57.0.0 ('Till The End') 64-bit
Writing library : libebml v1.4.2 + libmatroska v1.6.4

Video
ID : 1
Format : AVC
Format/Info : Advanced Video Codec
Format profile : [email protected]
Format settings : CABAC / 5 Ref Frames
Format settings, CABAC : Yes
Format settings, Reference fra : 5 frames
Codec ID : V_MPEG4/ISO/AVC
Duration : 2 h 56 min
Bit rate : 12.6 Mb/s
Width : 1 920 pixels
Height : 804 pixels
Display aspect ratio : 2.40:1
Frame rate mode : Constant
Frame rate : 23.976 (24000/1001) FPS
Color space : YUV
Chroma subsampling : 4:2:0
Bit depth : 8 bits
Scan type : Progressive
Bits/(Pixel*Frame) : 0.341
Stream size : 15.6 GiB (92%)
Writing library : x264 core 164 r3094+49M 0246926 devel [(8 & 10)[email protected] X86_64]
Encoding settings : cabac=1 / ref=5 / deblock=1:-3:-3 / analyse=0x3:0x133 / me=umh / subme=10 / psy=1 / fade_compensate=0.00 / psy_rd=1.00:0.00 / mixed_ref=1 / me_range=32 / chroma_me=1 / trellis=2 / 8x8dct=1 / cqm=0 / deadzone=21,11 / fast_pskip=0 / chroma_qp_offset=-2 / threads=12 / lookahead_threads=2 / sliced_threads=0 / nr=0 / decimate=0 / interlaced=0 / bluray_compat=0 / constrained_intra=0 / fgo=0 / bframes=8 / b_pyramid=2 / b_adapt=2 / b_bias=0 / direct=3 / weightb=1 / open_gop=0 / weightp=2 / keyint=250 / keyint_min=23 / scenecut=40 / intra_refresh=0 / rc_lookahead=60 / rc=2pass / mbtree=0 / bitrate=12635 / ratetol=1.0 / qcomp=0.60 / qpmin=0:0:0 / qpmax=69:69:69 / qpstep=4 / cplxblur=20.0 / qblur=0.5 / vbv_maxrate=62500 / vbv_bufsize=78125 / nal_hrd=none / filler=0 / ip_ratio=1.30 / pb_ratio=1.20 / aq=3:0.80 / aq-sensitivity=10.00 / aq-factor=1.00:1.00:1.00 / aq2=0 / aq3=0
Default : Yes
Forced : No
Color range : Limited
Color primaries : BT.709
Transfer characteristics : BT.709
Matrix coefficients : BT.709

Audio #1
ID : 2
Format : AC-3
Format/Info : Audio Coding 3
Commercial name : Dolby Digital
Codec ID : A_AC3
Duration : 2 h 56 min
Bit rate mode : Constant
Bit rate : 384 kb/s
Channel(s) : 6 channels
Channel layout : L R C LFE Ls Rs
Sampling rate : 48.0 kHz
Frame rate : 31.250 FPS (1536 SPF)
Compression mode : Lossy
Stream size : 484 MiB (3%)
Language : Russian
Service kind : Complete Main
Default : Yes
Forced : No

Audio #2
ID : 3
Format : E-AC-3 JOC
Format/Info : Enhanced AC-3 with Joint Object Coding
Commercial name : Dolby Digital Plus with Dolby Atmos
Codec ID : A_EAC3
Duration : 2 h 56 min
Bit rate mode : Constant
Bit rate : 768 kb/s
Channel(s) : 6 channels
Channel layout : L R C LFE Ls Rs
Sampling rate : 48.0 kHz
Frame rate : 31.250 FPS (1536 SPF)
Compression mode : Lossy
Stream size : 968 MiB (6%)
Language : English
Service kind : Complete Main
Default : No
Forced : No
Complexity index : 16
Number of dynamic objects : 15
Bed channel count : 1 channel
Bed channel configuration : LFE

Text #1
ID : 4
Format : UTF-8
Codec ID : S_TEXT/UTF8
Codec ID/Info : UTF-8 Plain Text
Duration : 2 h 55 min
Bit rate : 3 b/s
Count of elements : 119
Stream size : 4.98 KiB (0%)
Title : Forced
Language : Russian
Default : Yes
Forced : No

Text #2
ID : 5
Format : UTF-8
Codec ID : S_TEXT/UTF8
Codec ID/Info : UTF-8 Plain Text
Duration : 2 h 55 min
Bit rate : 72 b/s
Count of elements : 1924
Stream size : 93.0 KiB (0%)
Language : Russian
Default : No
Forced : No

Text #3
ID : 6
Format : UTF-8
Codec ID : S_TEXT/UTF8
Codec ID/Info : UTF-8 Plain Text
Duration : 2 h 46 min
Bit rate : 76 b/s
Count of elements : 1907
Stream size : 93.7 KiB (0%)
Title : FOCS
Language : Russian
Default : No
Forced : No

Text #4
ID : 7
Format : UTF-8
Codec ID : S_TEXT/UTF8
Codec ID/Info : UTF-8 Plain Text
Duration : 2 h 43 min
Bit rate : 45 b/s
Count of elements : 2040
Stream size : 54.7 KiB (0%)
Language : English
Default : No
Forced : No

Text #5
ID : 8
Format : UTF-8
Codec ID : S_TEXT/UTF8
Codec ID/Info : UTF-8 Plain Text
Duration : 2 h 55 min
Bit rate : 53 b/s
Count of elements : 2573
Stream size : 69.3 KiB (0%)
Title : SDH
Language : English
Default : No
Forced : No

Text #6
ID : 9
Format : UTF-8
Codec ID : S_TEXT/UTF8
Codec ID/Info : UTF-8 Plain Text
Duration : 2 h 54 min
Bit rate : 50 b/s
Count of elements : 1947
Stream size : 64.9 KiB (0%)
Language : Estonian
Default : No
Forced : No

Text #7
ID : 10
Format : UTF-8
Codec ID : S_TEXT/UTF8
Codec ID/Info : UTF-8 Plain Text
Duration : 2 h 55 min
Bit rate : 44 b/s
Count of elements : 1953
Stream size : 57.7 KiB (0%)
Language : Latvian
Default : No
Forced : No

Text #8
ID : 11
Format : UTF-8
Codec ID : S_TEXT/UTF8
Codec ID/Info : UTF-8 Plain Text
Duration : 2 h 55 min
Bit rate : 44 b/s
Count of elements : 1924
Stream size : 57.6 KiB (0%)
Language : Lithuanian
Default : No
Forced : No

Text #9
ID : 12
Format : UTF-8
Codec ID : S_TEXT/UTF8
Codec ID/Info : UTF-8 Plain Text
Duration : 2 h 54 min
Bit rate : 47 b/s
Count of elements : 1778
Stream size : 60.7 KiB (0%)
Language : Romanian
Default : No
Forced : No

Text #10
ID : 13
Format : UTF-8
Codec ID : S_TEXT/UTF8
Codec ID/Info : UTF-8 Plain Text
Duration : 2 h 44 min
Bit rate : 82 b/s
Count of elements : 1898
Stream size : 99.1 KiB (0%)
Title : JeniaRudik
Language : Ukrainian
Default : No
Forced : No

Menu
00:00:00.000 : Chapter 01
00:12:01.220 : Chapter 02
00:23:21.650 : Chapter 03
00:31:54.078 : Chapter 04
00:41:44.502 : Chapter 05
00:51:36.676 : Chapter 06
01:00:12.900 : Chapter 07
01:10:32.394 : Chapter 08
01:18:35.085 : Chapter 09
01:29:14.474 : Chapter 10
01:42:33.063 : Chapter 11
01:52:16.896 : Chapter 12
01:58:20.927 : Chapter 13
02:09:39.605 : Chapter 14
02:21:14.382 : Chapter 15
02:27:31.342 : Chapter 16
02:38:36.089 : Chapter 17
02:46:58.675 : Chapter 18

Этот торрент недоступен для скачивания без регистрации, однако доступен по публичной magnet-ссылке (источники с публичных трекеров). Перед использованием ссылки прочтите, пожалуйста Пользовательское соглашение, а также как можно дольше оставайтесь на раздаче! Для того, чтобы скачать сам торрент-файл (который видит больше источников), а также для того, чтобы поблагодарить релизера, вам необходимо зарегистрироваться. Если регистрироваться лень - вы можете также попробовать скачать релиз по нашим партнерским ссылкам ниже. Кроме того, зарегистрированным пользователям не показывается всплывающая реклама при скачивании.

[underver.se].t242527.torrent
Трекер: Зарегистрирован   [ 27.05.2022 16:52 ]  
Статус: проверено (by Robbertta at 27.05.2022 18:59)
Поблагодарили: пока никто не поблагодарил...
Тип торрента: публичный - доступные источники с открытых трекеров: 
Размер: 16.97 GB (занимает 3.88 DVDR, для записи нужно 4 болванки DVDR/RW)
 
 

Яндекс.Метрика powered by Sphinx


В Н И М А Н И Е
Сайт не распространяет и не хранит электронные версии произведений, а лишь бесплатно и без коммерческой выгоды (не требуя взамен платы,
SMS и т.д.) предоставляет доступ к создаваемому пользователями каталогу ссылок на торрент-файлы, которые содержат только списки хеш-сумм.
Убедительная просьба с жалобами обращаться напрямую к пользователю, разместившему торрент файл.

Вверх