Loading...
Error

Тайная жизнь цыган (Александр Валеев) [2022 г., документальный, познавательный, WEB-DL 1080p]

Статистика раздачи
Размер:  2.29 GB   |    Зарегистрирован:  1 месяц 23 дня   |    Скачан:  2 раза
Сидов:  1  |  0 KB/s  ]   Личеров:  0  |  0 KB/s  ]

* - сиды/пиры с внешних источников

   
 
Автор Сообщение

ARI71 Пол:Муж

13-Авг-2022 12:45

Тайная жизнь цыган


Год выпуска: 2022
Жанр: документальный, познавательный
Страна: Россия ООО "Пятница"
Режиссер: Александр Валеев
Сюжет фильма:
Документальная сага приоткроет двери дворцов и лачуг одной из самых закрытых национальностей. Как выглядит современный цыганский табор, с чем связана тайна ранних браков, сколько стоит купить невесту и почему похороны так много значат в жизни ромалэ — об этом и не только расскажет этот фильм.
Качество видео: WEB-DL 1080p

Продолжительность: 01:09:56
Формат: MKV
Видео: MPEG-4 AVC, 1905x1072, 4500 kbps
Аудио: русский, оригинал, AAC 2.0, 192 kbps

Код:

Общее
Уникальный идентификатор : 224666654382346822349860755598600468542 (0xA905394595A501064369376D6016783E)
Полное имя : G:\Тайная жизнь цыган.WEB-DL (1080p).mkv
Формат : Matroska
Версия формата : Version 4
Размер файла : 2,29 Гбайт
Продолжительность : 1 ч. 9 м.
Режим общего битрейта : Переменный
Общий поток : 4695 Кбит/сек
Дата кодирования : UTC 2022-08-09 12:01:46
Программа кодирования : mkvmerge v25.0.0 ('Prog Noir') 64-bit
Библиотека кодирования : libebml v1.3.6 + libmatroska v1.4.9

Видео
Идентификатор : 1
Формат : AVC
Формат/Информация : Advanced Video Codec
Профиль формата : [email protected]
Настройки формата : CABAC / 2 Ref Frames
Параметр CABAC формата : Да
Параметр RefFrames формата : 2 кадра
Идентификатор кодека : V_MPEG4/ISO/AVC
Продолжительность : 1 ч. 9 м.
Вид битрейта : Переменный
Битрейт : 4500 Кбит/сек
Ширина : 1920 пикселей
Высота : 1072 пикселя
Соотношение сторон : 16:9
Режим частоты кадров : Постоянный
Частота кадров : 25,000 кадров/сек
Цветовое пространство : YUV
Субдискретизация насыщенности : 4:2:0
Битовая глубина : 8 бит
Тип развёртки : Прогрессивная
Бит/(Пиксели*Кадры) : 0.087
Размер потока : 2,20 Гбайт (96%)
Default : Да
Forced : Нет
Цветовой диапазон : Limited
Основные цвета : BT.709
Характеристики трансфера : BT.709
Коэффициенты матрицы : BT.709

Аудио
Идентификатор : 2
Формат : AAC LC
Формат/Информация : Advanced Audio Codec Low Complexity
Идентификатор кодека : A_AAC-2
Продолжительность : 1 ч. 9 м.
Битрейт : 192 Кбит/сек
Каналы : 2 канала
Channel layout : L R
Частота : 44,1 КГц
Частота кадров : 43,066 кадра/сек (1024 SPF)
Метод сжатия : С потерями
Задержка видео : -120 мс.
Размер потока : 96,1 Мбайт (4%)
Default : Да
Forced : Нет

Этот торрент недоступен для скачивания без регистрации, однако доступен по публичной magnet-ссылке (источники с публичных трекеров). Перед использованием ссылки прочтите, пожалуйста Пользовательское соглашение, а также как можно дольше оставайтесь на раздаче! Для того, чтобы скачать сам торрент-файл (который видит больше источников), а также для того, чтобы поблагодарить релизера, вам необходимо зарегистрироваться. Если регистрироваться лень - вы можете также попробовать скачать релиз по нашим партнерским ссылкам ниже. Кроме того, зарегистрированным пользователям не показывается всплывающая реклама при скачивании.

[underver.se].t245317.torrent
Трекер: Зарегистрирован   [ 13.08.2022 12:45 ]  
Статус: проверено (by ARI71 at 13.08.2022 12:45)
Поблагодарили: пока никто не поблагодарил...
Тип торрента: публичный - доступные источники с открытых трекеров: 
Размер: 2.29 GB (занимает 0.52 DVDR, для записи нужно 1 болванка DVDR/RW)
 
 

Яндекс.Метрика powered by Sphinx


В Н И М А Н И Е
Сайт не распространяет и не хранит электронные версии произведений, а лишь бесплатно и без коммерческой выгоды (не требуя взамен платы,
SMS и т.д.) предоставляет доступ к создаваемому пользователями каталогу ссылок на торрент-файлы, которые содержат только списки хеш-сумм.
Убедительная просьба с жалобами обращаться напрямую к пользователю, разместившему торрент файл.

Вверх