Loading...
Error

Чемпионат России 2022-2023 / 5-й тур / Динамо М (Москва) - Краснодар (Краснодар) / Матч! Премьер HD [13.08.2022, Футбол, HDTVRip/720p/50fps, MKV/H.264, RU]

Статистика раздачи
Размер:  3.5 GB   |    Зарегистрирован:  1 месяц 22 дня   |    Скачан:  0 раз

Полного источника не было: Никогда

Сидов:  0  |  0 KB/s  ]   Личеров:  0  |  0 KB/s  ]

* - сиды/пиры с внешних источников

   
 
Автор Сообщение

Evgenii82 Пол:Муж

14-Авг-2022 04:46

Чемпионат России 2022-2023
5-й тур
Динамо М (Москва) - Краснодар (Краснодар)


Дата эфира: 13.08.2022
Вид спорта: Футбол
Комментарий: Профессиональный
Язык комментариев: Русский
Описание: Чемпионат России 2022-2023 / 5-й тур / Динамо М (Москва) - Краснодар (Краснодар).

13 августа 2022, суббота. 20:00 МСК. Стадион: ВТБ Арена - Центральный стадион Динамо им. Льва Яшина (Москва, Россия).
Качество: HDTVRip
Формат: MKV
Видео кодек: H.264
Аудио кодек: AC3
Видео: MPEG4 Video (H264) 1280x720 (16:9) 50fps 4000kbps
Аудио: Dolby AC3 48000Hz 6ch 448kbps
01:50:49
0-0
 
General
Unique ID : 256266707467172440198716608959327402799 (0xC0CB2C2D49FB40184A22382D7DEA7B2F)
Complete name : W:\Чемпионат России 2022-2023. 5-й тур. Динамо М (Москва) - Краснодар (Краснодар).mkv
Format : Matroska
Format version : Version 2
File size : 3.50 GiB
Duration : 1 h 50 min
Overall bit rate mode : Variable
Overall bit rate : 4 524 kb/s
Writing application : Lavf54.63.104
Writing library : Lavf54.63.104

Video
ID : 1
Format : AVC
Format/Info : Advanced Video Codec
Format profile : [email protected]
Format settings : CABAC / 4 Ref Frames
Format settings, CABAC : Yes
Format settings, Reference frames : 4 frames
Format settings, GOP : M=3, N=24
Codec ID : V_MPEG4/ISO/AVC
Duration : 1 h 50 min
Bit rate mode : Variable
Bit rate : 3 986 kb/s
Maximum bit rate : 5 983 kb/s
Width : 1 280 pixels
Height : 720 pixels
Display aspect ratio : 16:9
Frame rate mode : Constant
Frame rate : 50.000 FPS
Color space : YUV
Chroma subsampling : 4:2:0
Bit depth : 8 bits
Scan type : Progressive
Bits/(Pixel*Frame) : 0.087
Stream size : 3.09 GiB (88%)
Default : No
Forced : No
Color range : Limited
Color primaries : BT.709
Transfer characteristics : BT.709
Matrix coefficients : BT.709

Audio
ID : 2
Format : AC-3
Format/Info : Audio Coding 3
Commercial name : Dolby Digital
Codec ID : A_AC3
Duration : 1 h 50 min
Bit rate mode : Constant
Bit rate : 448 kb/s
Channel(s) : 6 channels
ChannelLayout_Original : L R C LFE Ls Rs
Sampling rate : 48.0 kHz
Frame rate : 31.250 FPS (1536 SPF)
Compression mode : Lossy
Stream size : 355 MiB (10%)
Service kind : Complete Main
Default : Yes
Forced : No

Этот торрент недоступен для скачивания без регистрации, однако доступен по публичной magnet-ссылке (источники с публичных трекеров). Перед использованием ссылки прочтите, пожалуйста Пользовательское соглашение, а также как можно дольше оставайтесь на раздаче! Для того, чтобы скачать сам торрент-файл (который видит больше источников), а также для того, чтобы поблагодарить релизера, вам необходимо зарегистрироваться. Если регистрироваться лень - вы можете также попробовать скачать релиз по нашим партнерским ссылкам ниже. Кроме того, зарегистрированным пользователям не показывается всплывающая реклама при скачивании.

[underver.se].t245340.torrent
Трекер: Зарегистрирован   [ 14.08.2022 04:46 ]  
Статус: проверено (by Evgenii82 at 14.08.2022 04:46)
Поблагодарили: пока никто не поблагодарил...
Тип торрента: публичный - доступные источники с открытых трекеров: 
Размер: 3.5 GB (занимает 0.8 DVDR, для записи нужно 1 болванка DVDR/RW)
 
 

Яндекс.Метрика powered by Sphinx


В Н И М А Н И Е
Сайт не распространяет и не хранит электронные версии произведений, а лишь бесплатно и без коммерческой выгоды (не требуя взамен платы,
SMS и т.д.) предоставляет доступ к создаваемому пользователями каталогу ссылок на торрент-файлы, которые содержат только списки хеш-сумм.
Убедительная просьба с жалобами обращаться напрямую к пользователю, разместившему торрент файл.

Вверх