Loading...
Error

(Metal) The Hu - Rumble Of Thunder [24-bit Hi-Res] (2022) (FLAC (tracks), Lossless)

Статистика раздачи
Размер:  1.42 GB   |    Зарегистрирован:  6 дней   |    Скачан:  0 раз

Полного источника не было: Никогда

Сидов:  0  |  0 KB/s  ]   Личеров:  0  |  0 KB/s  ]

* - сиды/пиры с внешних источников

   
 
Автор Сообщение

Renesans Пол:Муж

22-Сен-2022 21:02

The Hu - Rumble Of Thunder [24-bit Hi-Res]


Год: 2022
Жанр: Metal

Продолжительность: 01:08:05
Формат/Кодек: FLAC
Тип рипа: Tracks
Битрейт аудио: Lossless
Разрядность: 24 Bit/96 kHz

01. This Is Mongol
02. YUT Hovende
03. Triangle
04. Teach Me
05. Upright Destined Mongol
06. Sell The World
07. Black Thunder
08. Mother Nature
09. Bii Biyelgee
10. Segee
11. Shihi Hutu
12. TATAR Warrior
13. Black Thunder (Extended)
foobar2000 1.5.5 / Замер динамического диапазона (DR) 1.1.1
-------------------------------------------------------------------------------
Анализ: The Hu / Rumble Of Thunder
--------------------------------------------------------------------------------

DR Пики RMS Продолжительность трека
--------------------------------------------------------------------------------
DR7 -0.10 дБ -8.29 дБ 3:45 01-This Is Mongol
DR8 -0.10 дБ -9.61 дБ 5:34 02-YUT Hovende
DR7 -0.10 дБ -9.38 дБ 4:12 03-Triangle
DR7 -0.10 дБ -8.66 дБ 3:59 04-Teach Me
DR8 -0.10 дБ -8.89 дБ 4:50 05-Upright Destined Mongol
DR8 -0.10 дБ -9.78 дБ 4:24 06-Sell The World
DR5 -0.10 дБ -7.07 дБ 4:15 07-Black Thunder
DR7 -0.10 дБ -10.12 дБ 6:57 08-Mother Nature
DR7 -0.10 дБ -8.74 дБ 4:18 09-Bii Biyelgee
DR7 -0.10 дБ -8.76 дБ 4:40 10-Segee
DR8 -0.10 дБ -10.00 дБ 7:09 11-Shihi Hutu
DR6 -0.10 дБ -8.54 дБ 5:03 12-TATAR Warrior
DR7 -0.10 дБ -10.12 дБ 8:59 13-Black Thunder (Extended)
--------------------------------------------------------------------------------

Количество треков: 13
Реальные значения DR: DR7

Частота: 96000 Гц
Каналов: 2
Разрядность: 24
Битрейт: 2849 кбит/с
Кодек: FLAC
================================================================================

Этот торрент недоступен для скачивания без регистрации, однако доступен по публичной magnet-ссылке (источники с публичных трекеров). Перед использованием ссылки прочтите, пожалуйста Пользовательское соглашение, а также как можно дольше оставайтесь на раздаче! Для того, чтобы скачать сам торрент-файл (который видит больше источников), а также для того, чтобы поблагодарить релизера, вам необходимо зарегистрироваться. Если регистрироваться лень - вы можете также попробовать скачать релиз по нашим партнерским ссылкам ниже. Кроме того, зарегистрированным пользователям не показывается всплывающая реклама при скачивании.

[underver.se].t246687.torrent
Трекер: Зарегистрирован   [ 22.09.2022 21:02 ]  
Статус: проверено (by Renesans at 22.09.2022 21:04)
Поблагодарили: пока никто не поблагодарил...
Тип торрента: публичный - доступные источники с открытых трекеров: 
Размер: 1.42 GB (занимает 0.32 DVDR, для записи нужно 1 болванка DVDR/RW)
 
 

Яндекс.Метрика powered by Sphinx


В Н И М А Н И Е
Сайт не распространяет и не хранит электронные версии произведений, а лишь бесплатно и без коммерческой выгоды (не требуя взамен платы,
SMS и т.д.) предоставляет доступ к создаваемому пользователями каталогу ссылок на торрент-файлы, которые содержат только списки хеш-сумм.
Убедительная просьба с жалобами обращаться напрямую к пользователю, разместившему торрент файл.

Вверх