Loading...
Error

Бун / Boon (Дерек Прэсли) [2022, боевик, триллер, драма, криминал, детектив, WEB-DLRip 1080p] Dub (Zone Vision) + MVO (Jaskier) + Original (Eng) + Sub (Eng)

Статистика раздачи
Размер:  7.47 GB   |    Зарегистрирован:  6 дней   |    Скачан:  4 раза

Полного источника не было: 37 минут

Сидов:  0  |  0.3 KB/s  ]   Личеров:  3  |  1 MB/s  ]

* - сиды/пиры с внешних источников

   
 
Автор Сообщение

garry Пол:Муж

22-Сен-2022 22:51

Бун / Boon


Год выпуска: 2022
Жанр: боевик, триллер, драма, криминал, детектив
Страна: США
Режиссер: Дерек Прэсли
В ролях: Нил МакДонаф, Томми Флэнаган, Кристина Очоа, Джейсон Скотт Ли, Джеймс Мадио, Гэбриэлль Картерис, Кристиана Сидел, Деметриус Гросс, Пэт Монахэн, Джон Патрик Джордан
Сюжет фильма:
Овдовевшая Кэтрин пытается защитить себя и сына от местной преступной организации. Когда жизни Ника Буна и Кэтрин пересекаются, они полагаются друг на друга, чтобы защитить всё, за что они борются.
Качество видео: WEB-DLRip 1080p

Продолжительность: 01:35:45
Формат: MKV
Видео: x264, 1912x1032, 9945 kbps
Аудио #1: русский, дублированный [Zone Vision], AC3 5.1, 384 kbps
Аудио #2: русский, многоголосый закадровый [профессиональный, Jaskier], AC3 5.1, 448 kbps
Аудио #3: английский, оригинал, AC3 5.1, 384 kbps
Субтитры: тип: вшитые отключаемые, английский, формат: SRT

Релиз группы:
 
Complete name : Boon.2022.WEB-DL.1080p.ELEKTRI4KA.UNIONGANG.mkv
Format : Matroska
Format version : Version 4
File size : 7.47 GiB
Duration : 1 h 35 min
Overall bit rate : 11.2 Mb/s
Movie name : Boon.2022.WEB-DL.1080p.ELEKTRI4KA.UNIONGANG.
Encoded date : UTC 2022-09-22 17:00:23
Writing application : mkvmerge v8.3.0 ('Over the Horizon') 32bit
Writing library : libebml v1.3.1 + libmatroska v1.4.2

Video
ID : 1
Format : AVC
Format/Info : Advanced Video Codec
Format profile : [email protected]
Format settings : CABAC / 4 Ref Frames
Format settings, CABAC : Yes
Format settings, Reference frames : 4 frames
Codec ID : V_MPEG4/ISO/AVC
Duration : 1 h 35 min
Bit rate : 9 945 kb/s
Width : 1 912 pixels
Height : 1 032 pixels
Display aspect ratio : 1.85:1
Frame rate mode : Constant
Frame rate : 23.976 (24000/1001) FPS
Color space : YUV
Chroma subsampling : 4:2:0
Bit depth : 8 bits
Scan type : Progressive
Bits/(Pixel*Frame) : 0.210
Stream size : 6.65 GiB (89%)
Language : English
Default : Yes
Forced : No
Color range : Limited
Color primaries : BT.709
Transfer characteristics : BT.709
Matrix coefficients : BT.709

Audio #1
ID : 2
Format : AC-3
Format/Info : Audio Coding 3
Commercial name : Dolby Digital
Codec ID : A_AC3
Duration : 1 h 35 min
Bit rate mode : Constant
Bit rate : 384 kb/s
Channel(s) : 6 channels
Channel layout : L R C LFE Ls Rs
Sampling rate : 48.0 kHz
Frame rate : 31.250 FPS (1536 SPF)
Compression mode : Lossy
Stream size : 263 MiB (3%)
Title : DUB (Zone Vision)
Language : Russian
Service kind : Complete Main
Default : Yes
Forced : Yes

Audio #2
ID : 3
Format : AC-3
Format/Info : Audio Coding 3
Commercial name : Dolby Digital
Codec ID : A_AC3
Duration : 1 h 35 min
Bit rate mode : Constant
Bit rate : 448 kb/s
Channel(s) : 6 channels
Channel layout : L R C LFE Ls Rs
Sampling rate : 48.0 kHz
Frame rate : 31.250 FPS (1536 SPF)
Compression mode : Lossy
Stream size : 307 MiB (4%)
Title : MVO (Jaskier)
Language : Russian
Service kind : Complete Main
Default : No
Forced : No

Audio #3
ID : 4
Format : AC-3
Format/Info : Audio Coding 3
Commercial name : Dolby Digital
Codec ID : A_AC3
Duration : 1 h 35 min
Bit rate mode : Constant
Bit rate : 384 kb/s
Channel(s) : 6 channels
Channel layout : L R C LFE Ls Rs
Sampling rate : 48.0 kHz
Frame rate : 31.250 FPS (1536 SPF)
Compression mode : Lossy
Stream size : 263 MiB (3%)
Title : Original
Language : English
Service kind : Complete Main
Default : No
Forced : No

Text
ID : 5
Format : UTF-8
Codec ID : S_TEXT/UTF8
Codec ID/Info : UTF-8 Plain Text
Duration : 1 h 28 min
Bit rate : 37 b/s
Count of elements : 831
Stream size : 24.1 KiB (0%)
Title : Full
Language : English
Default : No
Forced : No

Этот торрент недоступен для скачивания без регистрации, однако доступен по публичной magnet-ссылке (источники с публичных трекеров). Перед использованием ссылки прочтите, пожалуйста Пользовательское соглашение, а также как можно дольше оставайтесь на раздаче! Для того, чтобы скачать сам торрент-файл (который видит больше источников), а также для того, чтобы поблагодарить релизера, вам необходимо зарегистрироваться. Если регистрироваться лень - вы можете также попробовать скачать релиз по нашим партнерским ссылкам ниже. Кроме того, зарегистрированным пользователям не показывается всплывающая реклама при скачивании.

[underver.se].t246691.torrent
Трекер: Зарегистрирован   [ 22.09.2022 22:51 ]  
Статус: проверено (by ARI71 at 23.09.2022 06:43)
Поблагодарили: пока никто не поблагодарил...
Тип торрента: публичный - доступные источники с открытых трекеров: 
Размер: 7.47 GB (занимает 1.71 DVDR, для записи нужно 2 болванки DVDR/RW)
 
 

Яндекс.Метрика powered by Sphinx


В Н И М А Н И Е
Сайт не распространяет и не хранит электронные версии произведений, а лишь бесплатно и без коммерческой выгоды (не требуя взамен платы,
SMS и т.д.) предоставляет доступ к создаваемому пользователями каталогу ссылок на торрент-файлы, которые содержат только списки хеш-сумм.
Убедительная просьба с жалобами обращаться напрямую к пользователю, разместившему торрент файл.

Вверх