Loading...
Error

Последний звонок / Last Call (Паоло Пиллади) [2021, комедия, WEB-DLRip 1080p] Dub (Zone Vision) + Original (Eng) + Sub (Eng)

Статистика раздачи
Размер:  4.2 GB   |    Зарегистрирован:  6 дней   |    Скачан:  2 раза
Сидов:  1  |  0 KB/s  ]   Личеров:  0  |  0 KB/s  ]

* - сиды/пиры с внешних источников

   
 
Автор Сообщение

garry Пол:Муж

22-Сен-2022 23:33

Последний звонок / Last Call


Год выпуска: 2021
Жанр: комедия
Страна: США
Режиссер: Паоло Пиллади
В ролях: Джереми Пивен, Тэрин Мэннинг, Брюс Дерн, Зак Макгоун, Джейми Кеннеди, Джек МакГи, Шери Отери, Кэти Мориарти, Джейсон Джеймс Рихтер, Крис Керсон
Сюжет фильма:
Успешный застройщик возвращается в свой старый район Филадельфии и должен решить, что делать с семейным баром: окончательно снести или подарить ему новую жизнь.
Качество видео: WEB-DLRip 1080p

Продолжительность: 01:41:23
Формат: MKV
Видео: x264, 1920x1080, 5157 kbps
Аудио #1: русский, дублированный [Zone Vision], AC3 5.1, 384 kbps
Аудио #2: английский, оригинал, AC3 5.1, 384 kbps
Субтитры #1-2: тип: вшитые отключаемые, английский Full, SDH, формат: SRT

Релиз группы:
 
Complete name : Posledniy.zvonok.2021.WEB-DL.1080p.ELEKTRI4KA.UNIONGANG.mkv
Format : Matroska
Format version : Version 4
File size : 4.20 GiB
Duration : 1 h 41 min
Overall bit rate : 5 927 kb/s
Movie name : Posledniy.zvonoki.2021.WEB-DL.1080p.ELEKTRI4KA.UNIONGANG.
Encoded date : UTC 2022-09-22 14:43:43
Writing application : mkvmerge v8.3.0 ('Over the Horizon') 32bit
Writing library : libebml v1.3.1 + libmatroska v1.4.2

Video
ID : 1
Format : AVC
Format/Info : Advanced Video Codec
Format profile : [email protected]
Format settings : CABAC / 4 Ref Frames
Format settings, CABAC : Yes
Format settings, Reference frames : 4 frames
Codec ID : V_MPEG4/ISO/AVC
Duration : 1 h 41 min
Bit rate : 5 157 kb/s
Width : 1 920 pixels
Height : 1 080 pixels
Display aspect ratio : 16:9
Frame rate mode : Constant
Frame rate : 23.976 FPS
Color space : YUV
Chroma subsampling : 4:2:0
Bit depth : 8 bits
Scan type : Progressive
Bits/(Pixel*Frame) : 0.104
Stream size : 3.65 GiB (87%)
Language : English
Default : Yes
Forced : No
Color range : Limited
Color primaries : BT.709
Transfer characteristics : BT.709
Matrix coefficients : BT.709

Audio #1
ID : 2
Format : AC-3
Format/Info : Audio Coding 3
Commercial name : Dolby Digital
Codec ID : A_AC3
Duration : 1 h 41 min
Bit rate mode : Constant
Bit rate : 384 kb/s
Channel(s) : 6 channels
Channel layout : L R C LFE Ls Rs
Sampling rate : 48.0 kHz
Frame rate : 31.250 FPS (1536 SPF)
Compression mode : Lossy
Delay relative to video : -42 ms
Stream size : 278 MiB (6%)
Title : DUB (Zone Vision)
Language : Russian
Service kind : Complete Main
Default : Yes
Forced : Yes

Audio #2
ID : 3
Format : AC-3
Format/Info : Audio Coding 3
Commercial name : Dolby Digital
Codec ID : A_AC3
Duration : 1 h 41 min
Bit rate mode : Constant
Bit rate : 384 kb/s
Channel(s) : 6 channels
Channel layout : L R C LFE Ls Rs
Sampling rate : 48.0 kHz
Frame rate : 31.250 FPS (1536 SPF)
Compression mode : Lossy
Delay relative to video : -42 ms
Stream size : 278 MiB (6%)
Title : Original
Language : English
Service kind : Complete Main
Default : No
Forced : No

Text #1
ID : 4
Format : UTF-8
Codec ID : S_TEXT/UTF8
Codec ID/Info : UTF-8 Plain Text
Duration : 23 min 44 s
Bit rate : 78 b/s
Count of elements : 496
Stream size : 13.7 KiB (0%)
Title : English
Language : English
Default : No
Forced : No

Text #2
ID : 5
Format : UTF-8
Codec ID : S_TEXT/UTF8
Codec ID/Info : UTF-8 Plain Text
Duration : 24 min 28 s
Bit rate : 85 b/s
Count of elements : 541
Stream size : 15.3 KiB (0%)
Title : English SDH
Language : English
Default : No
Forced : No

Menu
00:00:00.000 : en:1
00:10:39.470 : en:2
00:19:54.530 : en:3
00:32:24.780 : en:4
00:45:45.500 : en:5
00:55:59.779 : en:6
01:06:48.478 : en:7
01:17:31.898 : en:8
01:27:27.368 : en:9
01:37:31.057 : en:10

Этот торрент недоступен для скачивания без регистрации, однако доступен по публичной magnet-ссылке (источники с публичных трекеров). Перед использованием ссылки прочтите, пожалуйста Пользовательское соглашение, а также как можно дольше оставайтесь на раздаче! Для того, чтобы скачать сам торрент-файл (который видит больше источников), а также для того, чтобы поблагодарить релизера, вам необходимо зарегистрироваться. Если регистрироваться лень - вы можете также попробовать скачать релиз по нашим партнерским ссылкам ниже. Кроме того, зарегистрированным пользователям не показывается всплывающая реклама при скачивании.

[underver.se].t246692.torrent
Трекер: Зарегистрирован   [ 22.09.2022 23:33 ]  
Статус: проверено (by ARI71 at 23.09.2022 06:31)
Поблагодарили: пока никто не поблагодарил...
Тип торрента: публичный - доступные источники с открытых трекеров: 
Размер: 4.2 GB (занимает 0.96 DVDR, для записи нужно 1 болванка DVDR/RW)
 
 

Яндекс.Метрика powered by Sphinx


В Н И М А Н И Е
Сайт не распространяет и не хранит электронные версии произведений, а лишь бесплатно и без коммерческой выгоды (не требуя взамен платы,
SMS и т.д.) предоставляет доступ к создаваемому пользователями каталогу ссылок на торрент-файлы, которые содержат только списки хеш-сумм.
Убедительная просьба с жалобами обращаться напрямую к пользователю, разместившему торрент файл.

Вверх