Loading...
Error

Беспредельщики / The Bezonians (Саввас Д. Майкл) [2021, триллер, драма, криминал, WEB-DLRip 1080p] Dub (iTunes) + Original (Eng)

Статистика раздачи
Размер:  2.82 GB   |    Зарегистрирован:  6 дней   |    Скачан:  1 раз

Полного источника не было: 2 часа 25 минут

Сидов:  0  |  0.1 KB/s  ]   Личеров:  1  |  419 KB/s  ]

* - сиды/пиры с внешних источников

   
 
Автор Сообщение

garry Пол:Муж

22-Сен-2022 23:52

Беспредельщики / The Bezonians


Год выпуска: 2021
Жанр: триллер, драма, криминал
Страна: Великобритания
Режиссер: Саввас Д. Майкл
В ролях: Марина Сиртис, Винни Джонс, Дженни Миллер, Лоис Брейбин-Платт, Кристофер Сиуреф, Кем Хассан, Саввас Д. Майкл, Андреас Каррас, Питер Поликарпу, Крис Таммингс
Сюжет фильма:
Платон — гордый владелец клуба и семейный человек. Он наслаждается общением с различными людьми, которые часто посещают его бизнес, среди которых Энтони, умственно отсталый молодой человек с трагическим прошлым, Ахиллес, тихий и опасный молодой человек, и Таз, дикий парень с ирокезом. У них все идет гладко, но из-за неосторожного поступка в азартной игре герои сталкиваются с безжалостным сборщиком долгов по имени Уиллард.

Лола, на которую запал Ахиллес, приглашена на игру в покер и крупно выигрывает. Это ставит Платона в затруднительное положение, поскольку «коллектор» дает им ограниченный срок, чтобы собрать все деньги и оплатить долги.
Качество видео: WEB-DLRip 1080p

Продолжительность: 01:38:40
Формат: MKV
Видео: x264, 1920x800, 3071 kbps
Аудио #1: русский, дублированный [iTunes], AC3 5.1, 384 kbps
Аудио #2: английский, оригинал, E-AC3 5.1, 640 kbps

Релиз: селезень
 
General
Unique ID : 109160706796867577199122066686478780706 (0x521F965FA74A5FC23F22E1E136D60922)
Complete name : E:Video1The.Bezonians.2021.WEB-DL.1080p.seleZen.mkv
Format : Matroska
Format version : Version 4
File size : 2.82 GiB
Duration : 1 h 38 min
Overall bit rate : 4 097 kb/s
Movie name : The Bezonians 2021 from seleZen
Encoded date : UTC 2022-09-22 11:21:32
Writing application : mkvmerge v59.0.0 ('Shining Star') 64-bit
Writing library : libebml v1.4.2 + libmatroska v1.6.4

Video
ID : 1
Format : AVC
Format/Info : Advanced Video Codec
Format profile : [email protected]
Format settings : CABAC / 4 Ref Frames
Format settings, CABAC : Yes
Format settings, Reference : 4 frames
Codec ID : V_MPEG4/ISO/AVC
Duration : 1 h 38 min
Bit rate : 3 071 kb/s
Width : 1 920 pixels
Height : 800 pixels
Display aspect ratio : 2.40:1
Frame rate mode : Constant
Frame rate : 23.976 (24000/1001) FPS
Color space : YUV
Chroma subsampling : 4:2:0
Bit depth : 8 bits
Scan type : Progressive
Bits/(Pixel*Frame) : 0.083
Stream size : 2.12 GiB (75%)
Language : English
Default : Yes
Forced : No
Color range : Limited
Color primaries : BT.709
Transfer characteristics : BT.709
Matrix coefficients : BT.709

Audio #1
ID : 2
Format : AC-3
Format/Info : Audio Coding 3
Commercial name : Dolby Digital
Codec ID : A_AC3
Duration : 1 h 38 min
Bit rate mode : Constant
Bit rate : 384 kb/s
Channel(s) : 6 channels
Channel layout : L R C LFE Ls Rs
Sampling rate : 48.0 kHz
Frame rate : 31.250 FPS (1536 SPF)
Compression mode : Lossy
Stream size : 271 MiB (9%)
Title : iTunes
Language : Russian
Service kind : Complete Main
Default : Yes
Forced : Yes

Audio #2
ID : 3
Format : E-AC-3
Format/Info : Enhanced AC-3
Commercial name : Dolby Digital Plus
Codec ID : A_EAC3
Duration : 1 h 38 min
Bit rate mode : Constant
Bit rate : 640 kb/s
Channel(s) : 6 channels
Channel layout : L R C LFE Ls Rs
Sampling rate : 48.0 kHz
Frame rate : 31.250 FPS (1536 SPF)
Compression mode : Lossy
Stream size : 452 MiB (16%)
Title : Original
Language : English
Service kind : Complete Main
Default : No
Forced : No

Этот торрент недоступен для скачивания без регистрации, однако доступен по публичной magnet-ссылке (источники с публичных трекеров). Перед использованием ссылки прочтите, пожалуйста Пользовательское соглашение, а также как можно дольше оставайтесь на раздаче! Для того, чтобы скачать сам торрент-файл (который видит больше источников), а также для того, чтобы поблагодарить релизера, вам необходимо зарегистрироваться. Если регистрироваться лень - вы можете также попробовать скачать релиз по нашим партнерским ссылкам ниже. Кроме того, зарегистрированным пользователям не показывается всплывающая реклама при скачивании.

[underver.se].t246694.torrent
Трекер: Зарегистрирован   [ 22.09.2022 23:52 ]  
Статус: проверено (by ARI71 at 23.09.2022 06:52)
Поблагодарили: пока никто не поблагодарил...
Тип торрента: публичный - доступные источники с открытых трекеров: 
Размер: 2.82 GB (занимает 0.64 DVDR, для записи нужно 1 болванка DVDR/RW)
 
 

Яндекс.Метрика powered by Sphinx


В Н И М А Н И Е
Сайт не распространяет и не хранит электронные версии произведений, а лишь бесплатно и без коммерческой выгоды (не требуя взамен платы,
SMS и т.д.) предоставляет доступ к создаваемому пользователями каталогу ссылок на торрент-файлы, которые содержат только списки хеш-сумм.
Убедительная просьба с жалобами обращаться напрямую к пользователю, разместившему торрент файл.

Вверх