Loading...
Error

Барабашка [серии 01-08 из 08] (Александр Собичевский) [2022 г., Комедия, WEB-DLRip 1080p]

Статистика раздачи
Размер:  6 GB   |    Зарегистрирован:  6 дней   |    Скачан:  10 раз
Сидов:  1  |  32 KB/s  ]   Личеров:  17  |  4 MB/s  ]

* - сиды/пиры с внешних источников

   
 
Автор Сообщение

FiNikola Пол:Муж

23-Сен-2022 00:13

Барабашка [01-08 из 08]


Название: Барабашка
Год выхода: 2022
Жанр: Комедия
Режиссер-постановщик: Александр Собичевский
Актеры: Антон Филипенко, Ольга Дибцева, Николай Шрайбер, Тимофей Трибунцев, Максим Лагашкин, Сергей Дьячковский, Владимир Симонов, Евгений Муравич, Степан Девонин, Сергей Аброскин, Фёдор Бондарчук, Иса Новиков, Татьяна Мухина, Антон Юрьев

Описание:
Артём сидит дома на карантине. Поначалу ему даже нравится, что он предоставлен самому себе - семья на даче, начальник хоть и возникает с нелепыми инициативами, но только по телефону. И все бы хорошо, но вскоре Артем начинает замечать странные вещи: половина яичницы исчезает на глазах, стакан с виски сам переезжает в ванную, а на холодильнике появляется непристойный рисунок из магнитиков. Пытаясь разобраться, Артём понимает, что во всем виноват… барабашка, которого нужно извести любой ценой.



Страна: Россия
Студия: Лук-фильм / LOOKFILM
Продолжительность: 8 х ~ 00:25:00
Язык: Русский

Премьера: 19 сентября 2022 года
Примечание: Без рекламы
Версия 18+

Формат: MKV
Качество: WEB-DLRip 1080p
Видео: MPEG-4 AVC, ~ 4500 Кбит/с, 1920x1072
Звук: AC3, 2 ch, 192 Кбит/с
Субтитры: Отсутствуют
Семпл
Общее
Уникальный идентификатор : 262587091534049320036792346254897188911 (0xC58C6F2BA164DD339883B86CD952102F)
Полное имя : D:Barabashka.S01.2022.WEB-DLRip.1080pBarabashka.S01.E01.2022.WEB-DLRip.1080p.mkv
Формат : Matroska
Версия формата : Version 4
Размер файла : 859 Мбайт
Продолжительность : 26 м. 8 с.
Режим общего битрейта : Переменный
Общий поток : 4 594 Кбит/сек
Название фильма : Barabashka.S01.E01.2022.WEB-DLRip.1080p
Дата кодирования : UTC 2022-09-18 21:03:26
Программа кодирования : mkvmerge v68.0.0 ('The Curtain') 64-bit
Библиотека кодирования : libebml v1.4.2 + libmatroska v1.6.4
Attachments : poster.jpg

Видео
Идентификатор : 1
Формат : AVC
Формат/Информация : Advanced Video Codec
Профиль формата : [email protected]
Настройки формата : CABAC / 2 Ref Frames
Параметр CABAC формата : Да
Параметр RefFrames формата : 2 кадра
Идентификатор кодека : V_MPEG4/ISO/AVC
Продолжительность : 26 м. 8 с.
Вид битрейта : Переменный
Битрейт : 4 398 Кбит/сек
Максимальный битрейт : 4 500 Кбит/сек
Ширина : 1 920 пикселей
Высота : 1 072 пикселя
Соотношение сторон : 16:9
Режим частоты кадров : Постоянный
Частота кадров : 25,000 кадров/сек
Цветовое пространство : YUV
Субдискретизация насыщенности : 4:2:0
Битовая глубина : 8 бит
Тип развёртки : Прогрессивная
Бит/(Пиксели*Кадры) : 0.085
Размер потока : 822 Мбайт (96%)
Default : Да
Forced : Нет
Цветовой диапазон : Limited
Основные цвета : BT.709
Характеристики трансфера : BT.709
Коэффициенты матрицы : BT.709

Аудио
Идентификатор : 2
Формат : AC-3
Формат/Информация : Audio Coding 3
Коммерческое название : Dolby Digital
Идентификатор кодека : A_AC3
Продолжительность : 26 м. 8 с.
Вид битрейта : Постоянный
Битрейт : 192 Кбит/сек
Каналы : 2 канала
Channel layout : L R
Частота : 48,0 КГц
Частота кадров : 31,250 кадров/сек (1536 SPF)
Метод сжатия : С потерями
Задержка видео : -120 мс.
Размер потока : 35,9 Мбайт (4%)
Service kind : Complete Main
Default : Да
Forced : Нет

Этот торрент недоступен для скачивания без регистрации, однако доступен по публичной magnet-ссылке (источники с публичных трекеров). Перед использованием ссылки прочтите, пожалуйста Пользовательское соглашение, а также как можно дольше оставайтесь на раздаче! Для того, чтобы скачать сам торрент-файл (который видит больше источников), а также для того, чтобы поблагодарить релизера, вам необходимо зарегистрироваться. Если регистрироваться лень - вы можете также попробовать скачать релиз по нашим партнерским ссылкам ниже. Кроме того, зарегистрированным пользователям не показывается всплывающая реклама при скачивании.

[underver.se].t246698.torrent
Трекер: Зарегистрирован   [ 23.09.2022 00:13 ]  
Статус: проверено (by FiNikola at 23.09.2022 00:14)
Поблагодарили: пока никто не поблагодарил...
Тип торрента: публичный - доступные источники с открытых трекеров: 
Размер: 6 GB (занимает 1.37 DVDR, для записи нужно 2 болванки DVDR/RW)
 
 

Яндекс.Метрика powered by Sphinx


В Н И М А Н И Е
Сайт не распространяет и не хранит электронные версии произведений, а лишь бесплатно и без коммерческой выгоды (не требуя взамен платы,
SMS и т.д.) предоставляет доступ к создаваемому пользователями каталогу ссылок на торрент-файлы, которые содержат только списки хеш-сумм.
Убедительная просьба с жалобами обращаться напрямую к пользователю, разместившему торрент файл.

Вверх