Loading...
Error

Молодой человек (Александр Фомин) [2022 г., комедия, WEB-DLRip-AVC] (IVI)

Статистика раздачи
Размер:  1.46 GB   |    Зарегистрирован:  6 дней   |    Скачан:  10 раз
Сидов:  3  |  10 KB/s  ]   Личеров:  0  |  0 KB/s  ]

* - сиды/пиры с внешних источников

   
 
Автор Сообщение

FiNikola Пол:Муж

23-Сен-2022 00:22

Молодой человек


Название: Молодой человек
Год выхода: 2022
Жанр: Комедия
Режиссер: Александр Фомин
В главных ролях: Павел Табаков, Данила Козловский, Данила Поперечный, Ингрид Олеринская, Валентина Ляпина, Рахим Абрамов, Влад Фельдман, Егор Кирячок, Клим Бердинский, Елена Ксенофонтова

Описание: жена ушла к КМС по боксу, с убогой работы в банке уволили, а до закрытия ипотеки за маленькую студию в человейнике — годы боли и страданий. В момент отчаяния Иван узнает, что его ушлый одноклассник-двоечник Коля стал преуспевающим бизнесменом и объявил конкурс для старшеклассников с многомиллионным призовым фондом. Ваня, который выглядит сильно моложе своих лет, и которому даже алкоголь продают только по паспорту, решается на аферу. Он сбривает бороду, подделывает документы и едет на соревнование с уверенностью, что жизненный опыт легко одолеет молодость.



Страна: Россия
Студия: Кинокомпания "Киностудия им. М. Горького", "Versus Pictures"
Продолжительность: 01:50:37
Перевод: Не требуется [IVI]

Кодек: h.264
Качество: WEB-DLRip-AVC
Видео: MPEG-4 AVC, ~ 1501 Кбит/с, 1024x432, 25 кадр/с
Звук: AC3, 6 ch, 384 Кбит/с
Язык: Русский
Субтитры: Русские
General
Unique ID : 84878211320118663111472060977522317179 (0x3FDAF2E9D93515617C96A3975846977B)
Complete name : F:Молодой человек.(2022).WEB-DLRip.(AVC).by.Серый1779.Files-x.mkv
Format : Matroska
Format version : Version 4 / Version 2
File size : 1.46 GiB
Duration : 1 h 50 min
Overall bit rate : 1 887 kb/s
Movie name : Molodoy.chelovek.2022.WEB-DL.1080p.ELEKTRI4KA.UNIONGANG.
Encoded date : UTC 2022-07-28 13:12:56
Writing application : mkvmerge v32.0.0 ('Astral Progressions') 64-bit
Writing library : libebml v1.3.7 + libmatroska v1.5.0

Video
ID : 1
Format : AVC
Format/Info : Advanced Video Codec
Format profile : [email protected]
Format settings : CABAC / 9 Ref Frames
Format settings, CABAC : Yes
Format settings, RefFrames : 9 frames
Codec ID : V_MPEG4/ISO/AVC
Duration : 1 h 50 min
Bit rate : 1 501 kb/s
Width : 1 024 pixels
Height : 432 pixels
Display aspect ratio : 2.40:1
Frame rate mode : Constant
Frame rate : 25.000 FPS
Color space : YUV
Chroma subsampling : 4:2:0
Bit depth : 8 bits
Scan type : Progressive
Bits/(Pixel*Frame) : 0.136
Stream size : 1.16 GiB (80%)
Writing library : x264 core 146 r2538 121396c
Encoding settings : cabac=1 / ref=9 / deblock=1:-2:-1 / analyse=0x3:0x133 / me=umh / subme=9 / psy=1 / psy_rd=1.00:0.15 / mixed_ref=1 / me_range=32 / chroma_me=1 / trellis=2 / 8x8dct=1 / cqm=0 / deadzone=21,11 / fast_pskip=0 / chroma_qp_offset=-3 / threads=18 / lookahead_threads=3 / sliced_threads=0 / nr=0 / decimate=1 / interlaced=0 / bluray_compat=0 / constrained_intra=0 / bframes=9 / b_pyramid=2 / b_adapt=2 / b_bias=0 / direct=3 / weightb=1 / open_gop=0 / weightp=2 / keyint=250 / keyint_min=25 / scenecut=40 / intra_refresh=0 / rc=2pass / mbtree=0 / bitrate=1501 / ratetol=1.0 / qcomp=0.60 / qpmin=0 / qpmax=69 / qpstep=4 / cplxblur=20.0 / qblur=0.5 / ip_ratio=1.40 / pb_ratio=1.30 / aq=2:1.00
Default : Yes
Forced : No
Color range : Limited
Color primaries : BT.709
Transfer characteristics : BT.709
Matrix coefficients : BT.709

Audio
ID : 2
Format : AC-3
Format/Info : Audio Coding 3
Format settings, Endianness : Big
Codec ID : A_AC3
Duration : 1 h 50 min
Bit rate mode : Constant
Bit rate : 384 kb/s
Channel(s) : 6 channels
Channel positions : Front: L C R, Side: L R, LFE
Sampling rate : 48.0 kHz
Frame rate : 31.250 FPS (1536 SPF)
Bit depth : 16 bits
Compression mode : Lossy
Stream size : 304 MiB (20%)
Service kind : Complete Main
Default : Yes
Forced : No

Text
ID : 3
Format : UTF-8
Codec ID : S_TEXT/UTF8
Codec ID/Info : UTF-8 Plain Text
Duration : 1 h 45 min
Bit rate : 110 b/s
Count of elements : 2017
Stream size : 85.7 KiB (0%)
Title : Full
Language : Russian
Default : No
Forced : No

Этот торрент недоступен для скачивания без регистрации, однако доступен по публичной magnet-ссылке (источники с публичных трекеров). Перед использованием ссылки прочтите, пожалуйста Пользовательское соглашение, а также как можно дольше оставайтесь на раздаче! Для того, чтобы скачать сам торрент-файл (который видит больше источников), а также для того, чтобы поблагодарить релизера, вам необходимо зарегистрироваться. Если регистрироваться лень - вы можете также попробовать скачать релиз по нашим партнерским ссылкам ниже. Кроме того, зарегистрированным пользователям не показывается всплывающая реклама при скачивании.

[underver.se].t246701.torrent
Трекер: Зарегистрирован   [ 23.09.2022 00:22 ]  
Статус: проверено (by FiNikola at 23.09.2022 00:22)
Поблагодарили: пока никто не поблагодарил...
Тип торрента: публичный - доступные источники с открытых трекеров: 
Размер: 1.46 GB (занимает 1/3 DVDR, для записи нужно 1 болванка DVDR/RW)
 
 

Яндекс.Метрика powered by Sphinx


В Н И М А Н И Е
Сайт не распространяет и не хранит электронные версии произведений, а лишь бесплатно и без коммерческой выгоды (не требуя взамен платы,
SMS и т.д.) предоставляет доступ к создаваемому пользователями каталогу ссылок на торрент-файлы, которые содержат только списки хеш-сумм.
Убедительная просьба с жалобами обращаться напрямую к пользователю, разместившему торрент файл.

Вверх