Loading...
Error

Одна (Дмитрий Суворов) [2021 г., Драма, триллер, WEB-DL 1080p]

Статистика раздачи
Размер:  4.59 GB   |    Зарегистрирован:  6 дней   |    Скачан:  12 раз
Сидов:  3  |  6 KB/s  ]   Личеров:  2  |  766 KB/s  ]

* - сиды/пиры с внешних источников

   
 
Автор Сообщение

FiNikola Пол:Муж

23-Сен-2022 00:36

Одна


Название: Одна
Год выпуска: 2021
Жанр: Драма, триллер
Режиссёр: Дмитрий Суворов
В ролях: Надежда Калеганова, Виктор Добронравов, Максим Иванов, Мария Сокова, Ян Цапник, Леонид Громов, Никита Тарасов, Владислав Ветров, Виталия Корниенко, Антон Багров, Владимир Стеклов, Илья Кондратенко, Анна Дубровская, Александр Асташенок, Владимир Виноградов, Ёла Санько, Даниил Гольдфельд, Вадим Колганов, Юрий Лопарев, Сергей Белов, Ирина Чипиженко, Анна Бачалова, Алексей Поляков, Илья Лыков, Сергей Дьяков, Ольга Хохлова, Ирина Основина, Полина Рашкина, Петр Логачев, Никита Клещёв, Елена Тонунц, Ирина Соболева, Наталья Ромашенко, Анна Родоная, Анна Масальская, Анна Барсукова, Евгений Березовский, Юрий Внуков, Диана Енакаева, Игорь Пехович

Описание:
24 августа 1981 года молодожены Лариса и Владимир Савицкие ступили на борт самолета, следующего рейсом Комсомольск-на-Амуре - Благовещенск. За 30 минут до посадки гражданский борт АН-24 столкнулся с другим самолетом и развалился на куски на высоте более 5 километров над землей. Выжить не должен был никто, но произошло чудо — Лариса очнулась посреди обломков самолета в непроходимой тайге.



Страна: Россия
Студия: ООО «ССБ Кино»
Продолжительность: 01:37:04
Язык: Русский

Цифровой релиз: 04 августа 2022 года
Примечание: Без рекламы

Формат: MKV
Качество: WEB-DL 1080p
Видео: MPEG-4 AVC, 6144 Кбит/с, 1920x1080
Аудио: AC3, 6 ch, 640 Кбит/с
Субтитры: Отсутствуют
Семпл
Общее
Уникальный идентификатор : 230747071763313422364637663142908168665 (0xAD9844FE886B084DFDABF9760E5689D9)
Полное имя : D:Odna.2021.WEB-DL.1080p.mkv
Формат : Matroska
Версия формата : Version 4
Размер файла : 4,59 Гбайт
Продолжительность : 1 ч. 37 м.
Режим общего битрейта : Постоянный
Общий поток : 6 765 Кбит/сек
Название фильма : Odna.2021.WEB-DL.1080p
Дата кодирования : UTC 2022-08-04 03:21:55
Программа кодирования : mkvmerge v68.0.0 ('The Curtain') 64-bit
Библиотека кодирования : libebml v1.4.2 + libmatroska v1.6.4
Attachments : poster.jpg

Видео
Идентификатор : 1
Формат : AVC
Формат/Информация : Advanced Video Codec
Профиль формата : [email protected]
Настройки формата : 2 Ref Frames
Параметр CABAC формата : Нет
Параметр RefFrames формата : 2 кадра
Идентификатор кодека : V_MPEG4/ISO/AVC
Продолжительность : 1 ч. 37 м.
Вид битрейта : Постоянный
Битрейт : 6 144 Кбит/сек
Ширина : 1 920 пикселей
Высота : 1 080 пикселей
Соотношение сторон : 16:9
Режим частоты кадров : Постоянный
Частота кадров : 24,000 кадра/сек
Цветовое пространство : YUV
Субдискретизация насыщенности : 4:2:0
Битовая глубина : 8 бит
Тип развёртки : Прогрессивная
Бит/(Пиксели*Кадры) : 0.123
Размер потока : 4,15 Гбайт (90%)
Default : Да
Forced : Нет

Аудио
Идентификатор : 2
Формат : AC-3
Формат/Информация : Audio Coding 3
Коммерческое название : Dolby Digital
Идентификатор кодека : A_AC3
Продолжительность : 1 ч. 37 м.
Вид битрейта : Постоянный
Битрейт : 640 Кбит/сек
Каналы : 6 каналов
Channel layout : L R C LFE Ls Rs
Частота : 48,0 КГц
Частота кадров : 31,250 кадров/сек (1536 SPF)
Метод сжатия : С потерями
Размер потока : 444 Мбайт (9%)
Заголовок : [Original | AC3 Audio]
Язык : Russian
Service kind : Complete Main
Default : Да
Forced : Нет

Этот торрент недоступен для скачивания без регистрации, однако доступен по публичной magnet-ссылке (источники с публичных трекеров). Перед использованием ссылки прочтите, пожалуйста Пользовательское соглашение, а также как можно дольше оставайтесь на раздаче! Для того, чтобы скачать сам торрент-файл (который видит больше источников), а также для того, чтобы поблагодарить релизера, вам необходимо зарегистрироваться. Если регистрироваться лень - вы можете также попробовать скачать релиз по нашим партнерским ссылкам ниже. Кроме того, зарегистрированным пользователям не показывается всплывающая реклама при скачивании.

[underver.se].t246703.torrent
Трекер: Зарегистрирован   [ 23.09.2022 00:36 ]  
Статус: проверено (by FiNikola at 23.09.2022 00:37)
Поблагодарили: пока никто не поблагодарил...
Тип торрента: публичный - доступные источники с открытых трекеров: 
Размер: 4.59 GB (занимает 1.05 DVDR, для записи нужно 2 болванки DVDR/RW)
 
 

Яндекс.Метрика powered by Sphinx


В Н И М А Н И Е
Сайт не распространяет и не хранит электронные версии произведений, а лишь бесплатно и без коммерческой выгоды (не требуя взамен платы,
SMS и т.д.) предоставляет доступ к создаваемому пользователями каталогу ссылок на торрент-файлы, которые содержат только списки хеш-сумм.
Убедительная просьба с жалобами обращаться напрямую к пользователю, разместившему торрент файл.

Вверх