Loading...
Error

Одна (Дмитрий Суворов) [2021 г., Драма, триллер, WEB-DLRip-AVC]

Статистика раздачи
Размер:  1.46 GB   |    Зарегистрирован:  6 дней   |    Скачан:  6 раз

Полного источника не было: 2 дня 19 часов

Сидов:  0  |  0 KB/s  ]   Личеров:  0  |  0 KB/s  ]

* - сиды/пиры с внешних источников

   
 
Автор Сообщение

FiNikola Пол:Муж

23-Сен-2022 00:39

Одна


Название: Одна
Год выхода: 2021
Жанр: Драма, триллер
Режиссер: Дмитрий Суворов
Актеры: Надежда Калеганова, Виктор Добронравов, Максим Иванов, Мария Сокова, Ян Цапник, Леонид Громов, Никита Тарасов, Владислав Ветров, Виталия Корниенко, Антон Багров, Владимир Стеклов, Илья Кондратенко, Анна Дубровская, Александр Асташенок, Владимир Виноградов, Ёла Санько, Даниил Гольдфельд, Вадим Колганов, Юрий Лопарев, Сергей Белов, Ирина Чипиженко, Анна Бачалова, Алексей Поляков, Илья Лыков, Сергей Дьяков, Ольга Хохлова, Ирина Основина, Полина Рашкина, Петр Логачев, Никита Клещёв, Елена Тонунц, Ирина Соболева, Наталья Ромашенко, Анна Родоная, Анна Масальская, Анна Барсукова, Евгений Березовский, Юрий Внуков, Диана Енакаева, Игорь Пехович

Описание: 24 августа 1981 года молодожены Лариса и Владимир Савицкие ступили на борт самолета, следующего рейсом Комсомольск-на-Амуре - Благовещенск. За 30 минут до посадки гражданский борт АН-24 столкнулся с другим самолетом и развалился на куски на высоте более 5 километров над землей. Выжить не должен был никто, но произошло чудо — Лариса очнулась посреди обломков самолета в непроходимой тайге.



Страна: Россия
Студия: Кинокомпания ООО «ССБ Кино»
Продолжительность: 01:37:04
Язык: Русский

Кодек: h.264
Качество: WEB-DLRip-AVC
Видео: MPEG-4 AVC, ~ 1700 Кбит/с, 1024x432, 24 кадр/с
Звук: AC3, 2 ch, 192 Кбит/с
Язык: Русский
Cубтитры: Нет
General
Unique ID : 222382390405419503831476080811773439707 (0xA74D4A5CCE9173189CE166E1AB1EAEDB)
Complete name : F:Одна.(2021).WEB-DLRip.(AVC).by.Серый1779.Files-x.mkv
Format : Matroska
Format version : Version 2
File size : 1.46 GiB
Duration : 1 h 37 min
Overall bit rate : 2 148 kb/s
Encoded date : UTC 2022-08-04 21:16:25
Writing application : mkvmerge v7.8.0 ('River Man') 32bit built on Apr 3 2015 12:11:22
Writing library : libebml v1.3.1 + libmatroska v1.4.2

Video
ID : 1
Format : AVC
Format/Info : Advanced Video Codec
Format profile : [email protected]
Format settings : CABAC / 9 Ref Frames
Format settings, CABAC : Yes
Format settings, RefFrames : 9 frames
Codec ID : V_MPEG4/ISO/AVC
Duration : 1 h 37 min
Bit rate : 1 700 kb/s
Width : 1 024 pixels
Height : 432 pixels
Display aspect ratio : 2.40:1
Frame rate mode : Constant
Frame rate : 24.000 FPS
Color space : YUV
Chroma subsampling : 4:2:0
Bit depth : 8 bits
Scan type : Progressive
Bits/(Pixel*Frame) : 0.160
Stream size : 1.12 GiB (77%)
Writing library : x264 core 146 r2538 121396c
Encoding settings : cabac=1 / ref=9 / deblock=1:-2:-1 / analyse=0x3:0x133 / me=umh / subme=9 / psy=1 / psy_rd=1.00:0.15 / mixed_ref=1 / me_range=32 / chroma_me=1 / trellis=2 / 8x8dct=1 / cqm=0 / deadzone=21,11 / fast_pskip=0 / chroma_qp_offset=-3 / threads=18 / lookahead_threads=3 / sliced_threads=0 / nr=0 / decimate=1 / interlaced=0 / bluray_compat=0 / constrained_intra=0 / bframes=9 / b_pyramid=2 / b_adapt=2 / b_bias=0 / direct=3 / weightb=1 / open_gop=0 / weightp=2 / keyint=250 / keyint_min=23 / scenecut=40 / intra_refresh=0 / rc=2pass / mbtree=0 / bitrate=1700 / ratetol=1.0 / qcomp=0.60 / qpmin=0 / qpmax=69 / qpstep=4 / cplxblur=20.0 / qblur=0.5 / ip_ratio=1.40 / pb_ratio=1.30 / aq=2:1.00
Default : Yes
Forced : No
Color range : Limited
Color primaries : BT.709
Transfer characteristics : BT.709
Matrix coefficients : BT.709

Audio
ID : 2
Format : AC-3
Format/Info : Audio Coding 3
Format settings, Endianness : Big
Codec ID : A_AC3
Duration : 1 h 37 min
Bit rate mode : Constant
Bit rate : 448 kb/s
Channel(s) : 6 channels
Channel positions : Front: L C R, Side: L R, LFE
Sampling rate : 48.0 kHz
Frame rate : 31.250 FPS (1536 SPF)
Bit depth : 16 bits
Compression mode : Lossy
Stream size : 311 MiB (21%)
Service kind : Complete Main
Default : Yes
Forced : No

Этот торрент недоступен для скачивания без регистрации, однако доступен по публичной magnet-ссылке (источники с публичных трекеров). Перед использованием ссылки прочтите, пожалуйста Пользовательское соглашение, а также как можно дольше оставайтесь на раздаче! Для того, чтобы скачать сам торрент-файл (который видит больше источников), а также для того, чтобы поблагодарить релизера, вам необходимо зарегистрироваться. Если регистрироваться лень - вы можете также попробовать скачать релиз по нашим партнерским ссылкам ниже. Кроме того, зарегистрированным пользователям не показывается всплывающая реклама при скачивании.

[underver.se].t246705.torrent
Трекер: Зарегистрирован   [ 23.09.2022 00:39 ]  
Статус: проверено (by FiNikola at 23.09.2022 00:40)
Поблагодарили: пока никто не поблагодарил...
Тип торрента: публичный - доступные источники с открытых трекеров: 
Размер: 1.46 GB (занимает 1/3 DVDR, для записи нужно 1 болванка DVDR/RW)
 
 

Яндекс.Метрика powered by Sphinx


В Н И М А Н И Е
Сайт не распространяет и не хранит электронные версии произведений, а лишь бесплатно и без коммерческой выгоды (не требуя взамен платы,
SMS и т.д.) предоставляет доступ к создаваемому пользователями каталогу ссылок на торрент-файлы, которые содержат только списки хеш-сумм.
Убедительная просьба с жалобами обращаться напрямую к пользователю, разместившему торрент файл.

Вверх