Loading...
Error

Одна (Дмитрий Суворов) [2021 г., Драма, триллер, WEB-DLRip 720p]

Статистика раздачи
Размер:  2.21 GB   |    Зарегистрирован:  6 дней   |    Скачан:  9 раз

Полного источника не было: 3 часа

Сидов:  0  |  0 KB/s  ]   Личеров:  0  |  0 KB/s  ]

* - сиды/пиры с внешних источников

   
 
Автор Сообщение

FiNikola Пол:Муж

23-Сен-2022 00:42

Одна


Название: Одна
Год выпуска: 2021
Жанр: Драма, триллер
Режиссер-постановщик: Дмитрий Суворов
Актеры: Надежда Калеганова, Виктор Добронравов, Максим Иванов, Мария Сокова, Ян Цапник, Леонид Громов, Никита Тарасов, Владислав Ветров, Виталия Корниенко, Антон Багров

Описание:
24 августа 1981 года молодожены Лариса и Владимир Савицкие ступили на борт самолета, следующего рейсом Комсомольск-на-Амуре — Благовещенск. За 30 минут до посадки гражданский борт АН-24 столкнулся с другим самолетом и развалился на куски на высоте более 5 километров над землей. Выжить не должен был никто, но произошло чудо — Лариса очнулась посреди обломков самолета в непроходимой тайге.



Страна: Россия
Студия: ССБ Кино
Продолжительность: 01:37:04
Перевод: Не требуется

Формат: Matroska
Качество: WEB-DLRip 720p
Видео: 1280x536 at 24.000 fps, [email protected], ~2881 kbps
Звук: AC3, 6 ch, ~384 kbps - | Русский |
Субтитры: Отсутствуют
x264 [info]: frame I:1133 Avg QP:17.13 size: 71026
x264 [info]: frame P:36507 Avg QP:18.62 size: 29132
x264 [info]: frame B:102141 Avg QP:19.99 size: 9333

General
Unique ID : 105487352133904459895954071458141830258 (0x4F5C20017FE005AC9EACB13F205DFC72)
Complete name : L:Одна.2021.WEB-DLRip.720p.x264.mkv
Format : Matroska
Format version : Version 4
File size : 2.21 GiB
Duration : 1 h 37 min
Overall bit rate : 3 267 kb/s
Movie name : Одна.2021.WEB-DLRip.720p.x264
Encoded date : UTC 2022-08-04 08:40:53
Writing application : mkvmerge v63.0.0 ('Everything') 64-bit
Writing library : libebml v1.4.2 + libmatroska v1.6.4
Cover : Yes
Attachments : cover.jpg / small_cover.jpg

Video
ID : 1
Format : AVC
Format/Info : Advanced Video Codec
Format profile : [email protected]
Format settings : CABAC / 12 Ref Frames
Format settings, CABAC : Yes
Format settings, Reference : 12 frames
Codec ID : V_MPEG4/ISO/AVC
Duration : 1 h 37 min
Bit rate : 2 881 kb/s
Width : 1 280 pixels
Height : 536 pixels
Display aspect ratio : 2.40:1
Frame rate mode : Constant
Frame rate : 24.000 FPS
Color space : YUV
Chroma subsampling : 4:2:0
Bit depth : 8 bits
Scan type : Progressive
Bits/(Pixel*Frame) : 0.175
Stream size : 1.95 GiB (88%)
Title : -=DoMiNo=-
Writing library : x264 core 164 by -=DoMiNo=-
Encoding settings : cabac=1 / ref=12 / deblock=1:-3:-3 / analyse=0x3:0x133 / me=umh / subme=9 / psy=1 / psy_rd=1.05:0.15 / mixed_ref=1 / me_range=32 / chroma_me=1 / trellis=2 / 8x8dct=1 / cqm=0 / deadzone=21,11 / fast_pskip=0 / chroma_qp_offset=-3 / threads=17 / lookahead_threads=4 / sliced_threads=0 / nr=0 / decimate=0 / interlaced=0 / bluray_compat=0 / constrained_intra=0 / bframes=10 / b_pyramid=2 / b_adapt=2 / b_bias=0 / direct=1 / weightb=1 / open_gop=0 / weightp=2 / keyint=250 / keyint_min=24 / scenecut=40 / intra_refresh=0 / rc_lookahead=60 / rc=crf / mbtree=0 / crf=20.0 / qcomp=0.65 / qpmin=0 / qpmax=69 / qpstep=4 / vbv_maxrate=50000 / vbv_bufsize=62500 / crf_max=0.0 / nal_hrd=none / filler=0 / ip_ratio=1.30 / pb_ratio=1.20 / aq=3:0.90
Language : Russian
Default : Yes
Forced : No

Audio
ID : 2
Format : AC-3
Format/Info : Audio Coding 3
Commercial name : Dolby Digital
Codec ID : A_AC3
Duration : 1 h 37 min
Bit rate mode : Constant
Bit rate : 384 kb/s
Channel(s) : 6 channels
Channel layout : L R C LFE Ls Rs
Sampling rate : 48.0 kHz
Frame rate : 31.250 FPS (1536 SPF)
Compression mode : Lossy
Stream size : 267 MiB (12%)
Language : Russian
Service kind : Complete Main
Default : Yes
Forced : Yes

Этот торрент недоступен для скачивания без регистрации, однако доступен по публичной magnet-ссылке (источники с публичных трекеров). Перед использованием ссылки прочтите, пожалуйста Пользовательское соглашение, а также как можно дольше оставайтесь на раздаче! Для того, чтобы скачать сам торрент-файл (который видит больше источников), а также для того, чтобы поблагодарить релизера, вам необходимо зарегистрироваться. Если регистрироваться лень - вы можете также попробовать скачать релиз по нашим партнерским ссылкам ниже. Кроме того, зарегистрированным пользователям не показывается всплывающая реклама при скачивании.

[underver.se].t246706.torrent
Трекер: Зарегистрирован   [ 23.09.2022 00:42 ]  
Статус: проверено (by FiNikola at 23.09.2022 00:42)
Поблагодарили: пока никто не поблагодарил...
Тип торрента: публичный - доступные источники с открытых трекеров: 
Размер: 2.21 GB (занимает 0.51 DVDR, для записи нужно 1 болванка DVDR/RW)
 
 

Яндекс.Метрика powered by Sphinx


В Н И М А Н И Е
Сайт не распространяет и не хранит электронные версии произведений, а лишь бесплатно и без коммерческой выгоды (не требуя взамен платы,
SMS и т.д.) предоставляет доступ к создаваемому пользователями каталогу ссылок на торрент-файлы, которые содержат только списки хеш-сумм.
Убедительная просьба с жалобами обращаться напрямую к пользователю, разместившему торрент файл.

Вверх