Loading...
Error

(Ska, Punk) Ляпис Трубецкой - Рабкор (2012) [FLAC (Tracks+.CUE), Lossless]

Статистика раздачи
Размер:  263 MB   |    Зарегистрирован:  8 лет 5 месяцев   |    Скачан:  11 раз

Полного источника не было: 3 месяца 16 дней

Сидов:  0  |  0 KB/s  ]   Личеров:  0  |  0 KB/s  ]

* - сиды/пиры с внешних источников

   
 
Автор Сообщение

Бишеп Пол:Муж

23-Июн-2013 10:19

Ляпис Трубецкой - Рабкор

Жанр: Ska, Punk
Год выпуска: 2012
Производитель диска: Союз Мьюзик SZCD 6054-12
Аудиокодек: FLAC
Тип рипа: Tracks+.CUE
Битрейт аудио: Lossless
Продолжительность: 00:35:51
Треклист:
01. Интро
02. Не быць скотам!
03. Рабкор
04. Цмок ды арол
05. Путинарода
06. Броненосец (Ты ни при чем?)
07. Лилипут
08. Маеш яйцы?!
09. Убей раба!
10. Панас
11. Железный
12. Lyapis Crew


Exact Audio Copy V1.0 beta 3 from 29. August 2011

Отчёт EAC об извлечении, выполненном 11. августа 2012, 14:53

Ляпис Трубецкой / Рабкор

Дисковод: HL-DT-STDVD-RAM GH22NP20 Adapter: 1 ID: 0

Режим чтения : Достоверность
Использование точного потока : Да
Отключение кэша аудио : Да
Использование указателей C2 : Нет

Коррекция смещения при чтении : 102
Способность читать области Lead-in и Lead-out : Нет
Заполнение пропущенных сэмплов тишиной : Да
Удаление блоков с тишиной в начале и конце : Нет
При вычислениях CRC использовались нулевые сэмплы : Да
Интерфейс : Встроенный Win32-интерфейс для Win NT/2000
Обработка зазоров : Добавлено к предыдущему треку

Выходной формат : Пользовательский кодировщик
Выбранный битрейт : 128 kBit/s
Качество : Высокий
Добавление ID3-тега : Нет
Утилита сжатия : C:\Program Files (x86)\Exact Audio Copy\Flac\flac.exe
Дополнительные параметры : -V -8 -T "Date=%year%" -T "Genre=%genre%" %source%

TOC извлечённого CD

Трек | Старт | Длительность | Начальный сектор | Конечный сектор
---------------------------------------------------------------------
1 | 0:00.00 | 1:13.18 | 0 | 5492
2 | 1:13.18 | 2:36.31 | 5493 | 17223
3 | 3:49.49 | 3:15.24 | 17224 | 31872
4 | 7:04.73 | 3:19.61 | 31873 | 46858
5 | 10:24.59 | 3:31.66 | 46859 | 62749
6 | 13:56.50 | 3:33.04 | 62750 | 78728
7 | 17:29.54 | 3:58.70 | 78729 | 96648
8 | 21:28.49 | 2:48.41 | 96649 | 109289
9 | 24:17.15 | 2:47.70 | 109290 | 121884
10 | 27:05.10 | 2:31.24 | 121885 | 133233
11 | 29:36.34 | 3:16.60 | 133234 | 147993
12 | 32:53.19 | 3:04.63 | 147994 | 161856

Трек 1

Имя файла D:\01. Ляпис Трубецкой - Интро.wav

Длина предзазора 0:00:02.00

Пиковый уровень 99.8 %
Скорость извлечения 1.1 X
Качество трека 100.0 %
CRC теста B2C5E842
CRC копии B2C5E842
Трек не обнаружен в базе AccurateRip
Копирование... OK

Трек 2

Имя файла D:\02. Ляпис Трубецкой - Не Быць Скотам!.wav

Пиковый уровень 100.0 %
Скорость извлечения 1.4 X
Качество трека 100.0 %
CRC теста 25B802B6
CRC копии 25B802B6
Трек не обнаружен в базе AccurateRip
Копирование... OK

Трек 3

Имя файла D:\03. Ляпис Трубецкой - Рабкор.wav

Пиковый уровень 100.0 %
Скорость извлечения 1.6 X
Качество трека 100.0 %
CRC теста FBDD96E3
CRC копии FBDD96E3
Трек не обнаружен в базе AccurateRip
Копирование... OK

Трек 4

Имя файла D:\04. Ляпис Трубецкой - Цмок Ды Арол.wav

Пиковый уровень 100.0 %
Скорость извлечения 1.5 X
Качество трека 99.9 %
CRC теста 008E921E
CRC копии 008E921E
Трек не обнаружен в базе AccurateRip
Копирование... OK

Трек 5

Имя файла D:\05. Ляпис Трубецкой - Путинарода.wav

Пиковый уровень 100.0 %
Скорость извлечения 2.0 X
Качество трека 100.0 %
CRC теста 0D101A34
CRC копии 0D101A34
Трек не обнаружен в базе AccurateRip
Копирование... OK

Трек 6

Имя файла D:\06. Ляпис Трубецкой - Броненосец (Ты Ни При Чем).wav

Пиковый уровень 100.0 %
Скорость извлечения 2.1 X
Качество трека 100.0 %
CRC теста E13C84FB
CRC копии E13C84FB
Трек не обнаружен в базе AccurateRip
Копирование... OK

Трек 7

Имя файла D:\07. Ляпис Трубецкой - Лилипут.wav

Пиковый уровень 100.0 %
Скорость извлечения 2.3 X
Качество трека 100.0 %
CRC теста 00013632
CRC копии 00013632
Трек не обнаружен в базе AccurateRip
Копирование... OK

Трек 8

Имя файла D:\08. Ляпис Трубецкой - Маеш Яйцы!.wav

Пиковый уровень 100.0 %
Скорость извлечения 2.2 X
Качество трека 100.0 %
CRC теста C26E4140
CRC копии C26E4140
Трек не обнаружен в базе AccurateRip
Копирование... OK

Трек 9

Имя файла D:\09. Ляпис Трубецкой - Убей Раба!.wav

Пиковый уровень 100.0 %
Скорость извлечения 2.3 X
Качество трека 100.0 %
CRC теста 6AC5222D
CRC копии 6AC5222D
Трек не обнаружен в базе AccurateRip
Копирование... OK

Трек 10

Имя файла D:\10. Ляпис Трубецкой - Панас.wav

Пиковый уровень 100.0 %
Скорость извлечения 2.3 X
Качество трека 100.0 %
CRC теста C45738E3
CRC копии C45738E3
Трек не обнаружен в базе AccurateRip
Копирование... OK

Трек 11

Имя файла D:\11. Ляпис Трубецкой - Железный.wav

Пиковый уровень 100.0 %
Скорость извлечения 2.5 X
Качество трека 100.0 %
CRC теста B3B6BE3E
CRC копии B3B6BE3E
Трек не обнаружен в базе AccurateRip
Копирование... OK

Трек 12

Имя файла D:\12. Ляпис Трубецкой - Lyapis Crew.wav

Пиковый уровень 100.0 %
Скорость извлечения 2.5 X
Качество трека 100.0 %
CRC теста 4BF8AA5A
CRC копии 4BF8AA5A
Трек не обнаружен в базе AccurateRip
Копирование... OK

Ни одного трека нет в базе AccurateRip

Ошибок не произошло

Конец отчёта

==== Контрольная сумма отчёта 19451D4485C71BA58AFE584D198A027762B0795E78E14C87775C8260787EB869 ====

REM GENRE "Ska Punk"
REM DATE 2012
REM DISCID A4086E0C
REM COMMENT "ExactAudioCopy v1.0b3"
PERFORMER "Ляпис Трубецкой"
TITLE "Рабкор"
FILE "01. Ляпис Трубецкой - Интро.wav" WAVE
TRACK 01 AUDIO
TITLE "Интро"
PERFORMER "Ляпис Трубецкой"
INDEX 01 00:00:00
FILE "02. Ляпис Трубецкой - Не Быць Скотам!.wav" WAVE
TRACK 02 AUDIO
TITLE "Не Быць Скотам!"
PERFORMER "Ляпис Трубецкой"
INDEX 01 00:00:00
FILE "03. Ляпис Трубецкой - Рабкор.wav" WAVE
TRACK 03 AUDIO
TITLE "Рабкор"
PERFORMER "Ляпис Трубецкой"
INDEX 01 00:00:00
FILE "04. Ляпис Трубецкой - Цмок Ды Арол.wav" WAVE
TRACK 04 AUDIO
TITLE "Цмок Ды Арол"
PERFORMER "Ляпис Трубецкой"
INDEX 01 00:00:00
FILE "05. Ляпис Трубецкой - Путинарода.wav" WAVE
TRACK 05 AUDIO
TITLE "Путинарода"
PERFORMER "Ляпис Трубецкой"
INDEX 01 00:00:00
FILE "06. Ляпис Трубецкой - Броненосец (Ты Ни При Чем).wav" WAVE
TRACK 06 AUDIO
TITLE "Броненосец (Ты Ни При Чем?)"
PERFORMER "Ляпис Трубецкой"
INDEX 01 00:00:00
FILE "07. Ляпис Трубецкой - Лилипут.wav" WAVE
TRACK 07 AUDIO
TITLE "Лилипут"
PERFORMER "Ляпис Трубецкой"
INDEX 01 00:00:00
FILE "08. Ляпис Трубецкой - Маеш Яйцы!.wav" WAVE
TRACK 08 AUDIO
TITLE "Маеш Яйцы?!"
PERFORMER "Ляпис Трубецкой"
INDEX 01 00:00:00
FILE "09. Ляпис Трубецкой - Убей Раба!.wav" WAVE
TRACK 09 AUDIO
TITLE "Убей Раба!"
PERFORMER "Ляпис Трубецкой"
INDEX 01 00:00:00
FILE "10. Ляпис Трубецкой - Панас.wav" WAVE
TRACK 10 AUDIO
TITLE "Панас"
PERFORMER "Ляпис Трубецкой"
INDEX 01 00:00:00
FILE "11. Ляпис Трубецкой - Железный.wav" WAVE
TRACK 11 AUDIO
TITLE "Железный"
PERFORMER "Ляпис Трубецкой"
INDEX 01 00:00:00
FILE "12. Ляпис Трубецкой - Lyapis Crew.wav" WAVE
TRACK 12 AUDIO
TITLE "Lyapis Crew"
PERFORMER "Ляпис Трубецкой"
INDEX 01 00:00:00

Этот торрент недоступен для скачивания без регистрации, однако доступен по публичной magnet-ссылке (источники с публичных трекеров). Перед использованием ссылки прочтите, пожалуйста Пользовательское соглашение, а также как можно дольше оставайтесь на раздаче! Для того, чтобы скачать сам торрент-файл (который видит больше источников), а также для того, чтобы поблагодарить релизера, вам необходимо зарегистрироваться. Если регистрироваться лень - вы можете также попробовать скачать релиз по нашим партнерским ссылкам ниже. Кроме того, зарегистрированным пользователям не показывается всплывающая реклама при скачивании.

[underverse.su].t28641.torrent
Трекер: Зарегистрирован   [ 23.06.2013 10:19 ]  

Статус: проверено (by Бишеп at 23.06.2013 10:19)
Поблагодарили: 1 человек
Тип торрента: публичный - доступные источники с открытых трекеров: 
Размер: 263 MB (занимает 0,06 DVDR, для записи нужно 1 болванка DVDR/RW)
 
 
Похожие темы
Форум Тема Автор Торрент Отв. Посл. сооб.
Ska-Punk, Ska-Core (Ska, Punk-Rock) Less Than Jake - Sound The Alarm (EP) (2017) [MP3, 320 kbps CBR] Darkferse
1 | 0

0 | 1386

2

24.05.2017 18:45

Ska-Punk, Ska-Core (Lossless) (Ska, Punk) Ляпис Трубецкой - Веселые Картинки (2011) [FLAC (Tracks+.CUE), lossless] garry
2 | 0

0 | 5811

10

22.04.2011 22:07

Ska-Punk, Ska-Core (Lossless) (Ska, Punk, Alternative Rock) Ляпис Трубецкой (Lyapis Trubetskoy) - Agitpop (2010) [FLAC (Tracks+.Cue), Lossless] Бишеп
5 | 0

0 | 1536

4

15.02.2018 12:24


Яндекс.Метрика powered by Sphinx


В Н И М А Н И Е
Сайт не распространяет и не хранит электронные версии произведений, а лишь бесплатно и без коммерческой выгоды (не требуя взамен платы,
SMS и т.д.) предоставляет доступ к создаваемому пользователями каталогу ссылок на торрент-файлы, которые содержат только списки хеш-сумм.
Убедительная просьба с жалобами обращаться напрямую к пользователю, разместившему торрент файл.

Вверх