Loading...
Error

(Retro) Леонид Утесов - Имена на все времена (2007) [FLAC (Image+.CUE), Lossless]

Статистика раздачи
Размер:  284 MB   |    Зарегистрирован:  6 лет 10 месяцев   |    Скачан:  25 раз

Полного источника не было: 4 дня

Сидов:  0  |  0 KB/s  ]   Личеров:  0  |  0 KB/s  ]

* - сиды/пиры с внешних источников

   
 
Автор Сообщение

Бишеп Пол:Муж

28-Май-2014 18:24

Леонид Утесов - Имена на все времена

Жанр: Retro
Год выпуска: 2007
Производитель диска: Монолит MT 715391-196-1
Аудиокодек: FLAC
Тип рипа: Image+.CUE
Битрейт аудио: Lossless
Продолжительность: 01:16:28
Треклист:
01. У Чёрного моря
02. Бублички
03. У самовара я и моя Маша
04. Раскинулось море широко
05. Песня старого извозчика
06. Как много девушек хороших (Сердце)
07. Старая матросская песня
08. Тёмная ночь
09. В землянке
10. Дорога на Берлин
11. Ах, Одесса моя
12. Марш весёлых ребят
13. Случайный вальс
14. Одессит Мишка
15. Вернулся я на Родину
16. Всё хорошо, прекрасная маркиза
17. Одесский порт
18. Лунная рапсодия
19. Родная
20. Пароход
21. Когда проходит молодость
22. Если любишь, найди
23. Му-Му
24. Куплеты Курочкина (из спектакля "Свадьба с приданым")
25. Дорогие мои москвичи

Exact Audio Copy V1.0 beta 3 from 29. August 2011

EAC extraction logfile from 18. January 2014, 19:31

Леонид Утесов / Имена на все времена

Used drive : PIONEER DVD-RW DVR-K17A Adapter: 1 ID: 0

Read mode : Secure
Utilize accurate stream : Yes
Defeat audio cache : Yes
Make use of C2 pointers : No

Read offset correction : 48
Overread into Lead-In and Lead-Out : No
Fill up missing offset samples with silence : Yes
Delete leading and trailing silent blocks : No
Null samples used in CRC calculations : Yes
Used interface : Native Win32 interface for Win NT & 2000

Used output format : User Defined Encoder
Selected bitrate : 128 kBit/s
Quality : High
Add ID3 tag : No
Command line compressor : C:\Program Files\Exact Audio Copy\Flac\flac.exe
Additional command line options : -V -8 -T "Genre=%genre%" -T "Artist=%artist%" -T "Title=%title%" -T "Album=%albumtitle%" -T "Date=%year%" -T "Tracknumber=%tracknr%" -T "Comment=%comment%" %source%

TOC of the extracted CD

Track | Start | Length | Start sector | End sector
---------------------------------------------------------
1 | 0:00.00 | 3:17.40 | 0 | 14814
2 | 3:17.40 | 1:55.59 | 14815 | 23498
3 | 5:13.24 | 4:11.17 | 23499 | 42340
4 | 9:24.41 | 4:05.17 | 42341 | 60732
5 | 13:29.58 | 3:04.15 | 60733 | 74547
6 | 16:33.73 | 2:11.33 | 74548 | 84405
7 | 18:45.31 | 4:12.68 | 84406 | 103373
8 | 22:58.24 | 3:02.67 | 103374 | 117090
9 | 26:01.16 | 2:11.11 | 117091 | 126926
10 | 28:12.27 | 2:36.14 | 126927 | 138640
11 | 30:48.41 | 2:12.27 | 138641 | 148567
12 | 33:00.68 | 3:56.11 | 148568 | 166278
13 | 36:57.04 | 3:00.66 | 166279 | 179844
14 | 39:57.70 | 6:11.42 | 179845 | 207711
15 | 46:09.37 | 2:35.37 | 207712 | 219373
16 | 48:44.74 | 2:29.72 | 219374 | 230620
17 | 51:14.71 | 2:25.59 | 230621 | 241554
18 | 53:40.55 | 3:14.24 | 241555 | 256128
19 | 56:55.04 | 2:51.31 | 256129 | 268984
20 | 59:46.35 | 3:12.65 | 268985 | 283449
21 | 62:59.25 | 2:55.24 | 283450 | 296598
22 | 65:54.49 | 2:55.03 | 296599 | 309726
23 | 68:49.52 | 2:25.35 | 309727 | 320636
24 | 71:15.12 | 2:17.30 | 320637 | 330941
25 | 73:32.42 | 2:55.53 | 330942 | 344119

Range status and errors

Selected range

Filename D:\Grab\Леонид Утесов - Имена на все времена.wav

Peak level 98.8 %
Extraction speed 2.9 X
Range quality 99.9 %
Test CRC F19B7DC7
Copy CRC F19B7DC7
Copy OK

No errors occurred

AccurateRip summary
Track 1 not present in database
Track 2 not present in database
Track 3 not present in database
Track 4 not present in database
Track 5 not present in database
Track 6 not present in database
Track 7 not present in database
Track 8 not present in database
Track 9 not present in database
Track 10 not present in database
Track 11 not present in database
Track 12 not present in database
Track 13 not present in database
Track 14 not present in database
Track 15 not present in database
Track 16 not present in database
Track 17 not present in database
Track 18 not present in database
Track 19 not present in database
Track 20 not present in database
Track 21 not present in database
Track 22 not present in database
Track 23 not present in database
Track 24 not present in database
Track 25 not present in database
None of the tracks are present in the AccurateRip database

End of status report

==== Log checksum F997DEE43A2E3C326919AE9E7F84E2BC775E46A68BDEB56EB986ACF98F3A2926 ====

Этот торрент недоступен для скачивания без регистрации, однако доступен по публичной magnet-ссылке (источники с публичных трекеров). Перед использованием ссылки прочтите, пожалуйста Пользовательское соглашение, а также как можно дольше оставайтесь на раздаче! Для того, чтобы скачать сам торрент-файл (который видит больше источников), а также для того, чтобы поблагодарить релизера, вам необходимо зарегистрироваться. Если регистрироваться лень - вы можете также попробовать скачать релиз по нашим партнерским ссылкам ниже. Кроме того, зарегистрированным пользователям не показывается всплывающая реклама при скачивании.

[underverse.su].t40519.torrent
Трекер: Зарегистрирован   [ 28.05.2014 18:24 ]  

Статус: проверено (by Бишеп at 28.05.2014 18:25)
Поблагодарили: 4 человека
Тип торрента: публичный - доступные источники с открытых трекеров: 
Размер: 284 MB (занимает 0,06 DVDR, для записи нужно 1 болванка DVDR/RW)
 
 
Похожие темы
Форум Тема Автор Торрент Отв. Посл. сооб.
Отечественная Ретро Музыка (Lossless) (Retro) Леонид Утесов - Grand Collection (2004) [FLAC (Tracks+.CUE), lossless] garry
1 | 0

1 | 2625

36

22.06.2014 21:25

Отечественная Ретро Музыка (Lossless) (Retro) Леонид Утесов - С одесского кичмана (2001) [FLAC (Image+.CUE), Lossless] Бишеп
2 | 0

0 | 1796

37

22.05.2015 14:29

Grigor.V Пол:Муж

22-Июн-2014 21:24

:super: :super:

Яндекс.Метрика powered by Sphinx


В Н И М А Н И Е
Сайт не распространяет и не хранит электронные версии произведений, а лишь бесплатно и без коммерческой выгоды (не требуя взамен платы,
SMS и т.д.) предоставляет доступ к создаваемому пользователями каталогу ссылок на торрент-файлы, которые содержат только списки хеш-сумм.
Убедительная просьба с жалобами обращаться напрямую к пользователю, разместившему торрент файл.

Вверх