Loading...
Error

(Trip-Hop, Illbient, Modern Classical, Downtempo) Saltillo - Ganglion (2006) [FLAC (Tracks+.CUE), lossless]

Статистика раздачи
Размер:  297 MB   |    Зарегистрирован:  6 лет 2 месяца   |    Скачан:  3 раза

Полного источника не было: 1 год 9 месяцев

Сидов:  0  |  0 KB/s  ]   Личеров:  0  |  0 KB/s  ]

* - сиды/пиры с внешних источников

   
 
Автор Сообщение

ost 

08-Июн-2014 10:52

Saltillo - Ganglion

Жанр: Trip-Hop, Illbient, Modern Classical, Downtempo
Год выпуска: 2006
Производитель диска: Suspicious Records
Аудиокодек: FLAC
Тип рипа: Tracks+.CUE
Битрейт аудио: lossless
Продолжительность: 00:52:23

Треклист:

01. A Necessary End (05:58)
02. Giving In (05:23)
03. Remember Me? (03:26)
04. A Simple Test (05:31)
05. A Hair on the Head of John the Baptist (07:34)
06. Blood and Milk (03:22)
07. The Opening (02:49)
08. Backyard Pond (03:00)
09. Grafting (04:46)
10. Praise (04:12)
11. I'm on the Wrong Side (02:30)
12. 002 F#m (03:46)
EAC extraction logfile from 5. October 2006, 20:55 for CD
Saltillo / Ganglion

Used drive : Compaq DVD-ROM DVD-117 Adapter: 0 ID: 2
Read mode : Secure with NO C2, accurate stream, disable cache
Read offset correction : 102
Overread into Lead-In and Lead-Out : No

Used output format : C:\Program Files\FLAC\flac.exe (User Defined Encoder)
128 kBit/s
Additional command line options : -V -8 -T "artist=%a" -T "title=%t" -T "album=%g" -T "date=%y" -T "tracknumber=%n" -T "genre=%m" %s

Other options :
Fill up missing offset samples with silence : Yes
Delete leading and trailing silent blocks : No
Installed external ASPI interface

Track 1
Filename F:\AYYYAYYAYYYY!!\to_be_sorted\ripped\Saltillo - Ganglion\01 - A Necessary End.wav

Pre-gap length 0:00:02.00

Peak level 100.0 %
Track quality 100.0 %
Test CRC 54DB9B73
Copy CRC 54DB9B73
Copy OK

Track 2
Filename F:\AYYYAYYAYYYY!!\to_be_sorted\ripped\Saltillo - Ganglion\02 - Giving In.wav

Peak level 100.0 %
Track quality 100.0 %
Test CRC 00BA85AB
Copy CRC 00BA85AB
Copy OK

Track 3
Filename F:\AYYYAYYAYYYY!!\to_be_sorted\ripped\Saltillo - Ganglion\03 - Remember Me .wav

Peak level 100.0 %
Track quality 100.0 %
Test CRC A402A885
Copy CRC A402A885
Copy OK

Track 4
Filename F:\AYYYAYYAYYYY!!\to_be_sorted\ripped\Saltillo - Ganglion\04 - A Simple Test.wav

Peak level 100.0 %
Track quality 100.0 %
Test CRC 2076B659
Copy CRC 2076B659
Copy OK

Track 5
Filename F:\AYYYAYYAYYYY!!\to_be_sorted\ripped\Saltillo - Ganglion\05 - A Hair on the Head of John the Baptist.wav

Peak level 100.0 %
Track quality 100.0 %
Test CRC 263E2FB8
Copy CRC 263E2FB8
Copy OK

Track 6
Filename F:\AYYYAYYAYYYY!!\to_be_sorted\ripped\Saltillo - Ganglion\06 - Blood and Milk.wav

Peak level 100.0 %
Track quality 99.9 %
Test CRC B48CB9EC
Copy CRC B48CB9EC
Copy OK

Track 7
Filename F:\AYYYAYYAYYYY!!\to_be_sorted\ripped\Saltillo - Ganglion\07 - The Opening.wav

Peak level 100.0 %
Track quality 100.0 %
Test CRC 8962DE95
Copy CRC 8962DE95
Copy OK

Track 8
Filename F:\AYYYAYYAYYYY!!\to_be_sorted\ripped\Saltillo - Ganglion\08 - Backyard Pond.wav

Peak level 100.0 %
Track quality 100.0 %
Test CRC 882D103A
Copy CRC 882D103A
Copy OK

Track 9
Filename F:\AYYYAYYAYYYY!!\to_be_sorted\ripped\Saltillo - Ganglion\09 - Grafting.wav

Peak level 100.0 %
Track quality 99.9 %
Test CRC 2F51E175
Copy CRC 2F51E175
Copy OK

Track 10
Filename F:\AYYYAYYAYYYY!!\to_be_sorted\ripped\Saltillo - Ganglion\10 - Praise.wav

Peak level 100.0 %
Track quality 100.0 %
Test CRC 226E067E
Copy CRC 226E067E
Copy OK

Track 11
Filename F:\AYYYAYYAYYYY!!\to_be_sorted\ripped\Saltillo - Ganglion\11 - I'm on the Wrong Side.wav

Peak level 83.9 %
Track quality 100.0 %
Test CRC FBE373B9
Copy CRC FBE373B9
Copy OK

Track 12
Filename F:\AYYYAYYAYYYY!!\to_be_sorted\ripped\Saltillo - Ganglion\12 - 002 F#m.wav

Peak level 66.3 %
Track quality 99.9 %
Test CRC F6F11C27
Copy CRC F6F11C27
Copy OK

No errors occured

End of status report
REM GENRE Trip-Hop
REM DATE 2006
REM DISCID B20C470C
REM COMMENT "ExactAudioCopy v0.95b4"
PERFORMER "Saltillo"
TITLE "Ganglion"
FILE "01 - A Necessary End.wav" WAVE
TRACK 01 AUDIO
TITLE "A Necessary End"
PERFORMER "Saltillo"
INDEX 01 00:00:00
FILE "02 - Giving In.wav" WAVE
TRACK 02 AUDIO
TITLE "Giving In"
PERFORMER "Saltillo"
INDEX 01 00:00:00
FILE "03 - Remember Me .wav" WAVE
TRACK 03 AUDIO
TITLE "Remember Me?"
PERFORMER "Saltillo"
INDEX 01 00:00:00
FILE "04 - A Simple Test.wav" WAVE
TRACK 04 AUDIO
TITLE "A Simple Test"
PERFORMER "Saltillo"
INDEX 01 00:00:00
FILE "05 - A Hair on the Head of John the Baptist.wav" WAVE
TRACK 05 AUDIO
TITLE "A Hair on the Head of John the Baptist"
PERFORMER "Saltillo"
INDEX 01 00:00:00
FILE "06 - Blood and Milk.wav" WAVE
TRACK 06 AUDIO
TITLE "Blood and Milk"
PERFORMER "Saltillo"
INDEX 01 00:00:00
FILE "07 - The Opening.wav" WAVE
TRACK 07 AUDIO
TITLE "The Opening"
PERFORMER "Saltillo"
INDEX 01 00:00:00
FILE "08 - Backyard Pond.wav" WAVE
TRACK 08 AUDIO
TITLE "Backyard Pond"
PERFORMER "Saltillo"
INDEX 01 00:00:00
FILE "09 - Grafting.wav" WAVE
TRACK 09 AUDIO
TITLE "Grafting"
PERFORMER "Saltillo"
INDEX 01 00:00:00
FILE "10 - Praise.wav" WAVE
TRACK 10 AUDIO
TITLE "Praise"
PERFORMER "Saltillo"
INDEX 01 00:00:00
FILE "11 - I'm on the Wrong Side.wav" WAVE
TRACK 11 AUDIO
TITLE "I'm on the Wrong Side"
PERFORMER "Saltillo"
INDEX 01 00:00:00
FILE "12 - 002 F#m.wav" WAVE
TRACK 12 AUDIO
TITLE "002 F#m"
PERFORMER "Saltillo"
INDEX 01 00:00:00

-----------------------

DON'T MODIFY THIS FILE

-----------------------

PERFORMER: auCDtect Task Manager, ver. 1.6.0 RC1 build 1.6.0.1
Copyright (c) 2008-2010 y-soft. All rights reserved
http://y-soft.org

ANALYZER: auCDtect: CD records authenticity detector, version 0.8.2
Copyright (c) 2004 Oleg Berngardt. All rights reserved.
Copyright (c) 2004 Alexander Djourik. All rights reserved.

FILE: 05 - A Hair on the Head of John the Baptist.flac
Size: 43842976 Hash: B218BD1E7628369717D2131D6A57DC7E Accuracy: -m0
Conclusion: CDDA 100%
Signature: E0FF584FF961F38BD5CD3A8CCF39FE6704171205
FILE: 01 - A Necessary End.flac
Size: 36147008 Hash: 66578A7FF1E15537774626B4DC043BB6 Accuracy: -m0
Conclusion: CDDA 100%
Signature: C858CE8013E89CA6B67493E4DBD685B6A4C6B89B
FILE: 11 - I'm on the Wrong Side.flac
Size: 12621202 Hash: FF70113DD114CD45D36D339ABA4C2E8F Accuracy: -m0
Conclusion: CDDA 100%
Signature: CDBE6571E505442D5A2E41F1291E01806886F8CE
FILE: 12 - 002 F#m.flac
Size: 14737031 Hash: 468D7060B27CB0AFFF6C4BB8977B056F Accuracy: -m0
Conclusion: CDDA 100%
Signature: 6CCBC86916FAF517AA148015257C38DDFB9D7681
FILE: 07 - The Opening.flac
Size: 17641449 Hash: 924902FD49A7B1E6CCD6A2A6F09AC560 Accuracy: -m0
Conclusion: CDDA 100%
Signature: CF19012C59ACBB704DA863B46D47C54BFD81C11E
FILE: 06 - Blood and Milk.flac
Size: 22704008 Hash: 469DAB30180B3677CFE6236BDE25C143 Accuracy: -m0
Conclusion: CDDA 100%
Signature: 04C427AB72A52FB6D2A217ECBB8FF8B4524F4E79
FILE: 04 - A Simple Test.flac
Size: 39648745 Hash: 1D2D5CCD9F253FA54641F1A0AA652935 Accuracy: -m0
Conclusion: CDDA 100%
Signature: 2D43AF801AD6419786260C6AD6DD40DB24D370C6
FILE: 08 - Backyard Pond.flac
Size: 18627886 Hash: EAFE970FBCA664D632A64037D7EB384E Accuracy: -m0
Conclusion: CDDA 100%
Signature: E768602638CA9C74368A2E60880653BA07AB6B68
FILE: 09 - Grafting.flac
Size: 28540234 Hash: E453015AE4C11DA22E4141CCA2303D4E Accuracy: -m0
Conclusion: CDDA 100%
Signature: 40D4EBEDC2515F90DC6D26E049B0F132C677C1C7
FILE: 02 - Giving In.flac
Size: 28885463 Hash: BFE73070F334BD9BE11996BB165A0183 Accuracy: -m0
Conclusion: CDDA 100%
Signature: 9CEBA00AFFB5EECC89913BDD6E8A647064E2561C
FILE: 10 - Praise.flac
Size: 27691578 Hash: 8D4E03C8489B7898BF4554E8EE07038E Accuracy: -m0
Conclusion: CDDA 100%
Signature: FD8E3B372448C92A135A4A625977068C5EE9346C
FILE: 03 - Remember Me .flac
Size: 20803151 Hash: C88202AB91F8E1305EB8A72FA4258FB0 Accuracy: -m0
Conclusion: CDDA 100%
Signature: 3CF2DC0BE2E8A56A0F257B62DBB569CFB244E34A

Этот торрент недоступен для скачивания без регистрации, однако доступен по публичной magnet-ссылке (источники с публичных трекеров). Перед использованием ссылки прочтите, пожалуйста Пользовательское соглашение, а также как можно дольше оставайтесь на раздаче! Для того, чтобы скачать сам торрент-файл (который видит больше источников), а также для того, чтобы поблагодарить релизера, вам необходимо зарегистрироваться. Если регистрироваться лень - вы можете также попробовать скачать релиз по нашим партнерским ссылкам ниже. Кроме того, зарегистрированным пользователям не показывается всплывающая реклама при скачивании.

[underverse.su].t40827.torrent
Трекер: Зарегистрирован   [ 08.06.2014 10:52 ]  

Статус: проверено (by Бишеп at 08.06.2014 15:32)
Поблагодарили: 2 человека
Тип торрента: публичный - доступные источники с открытых трекеров: 
Размер: 297 MB (занимает 0,07 DVDR, для записи нужно 1 болванка DVDR/RW)
 
 
Похожие темы
Форум Тема Автор Торрент Отв. Посл. сооб.
IDM, Easy Listening (Trip-Hop, Glitch-Hop, IDM) Prefuse 73 - Fudge Beats (2019) [MP3, 320 kbps CBR] Magnat
0 | 0

0 | 377

3

06.06.2019 19:13

Trip Hop, Abstract Hip Hop (Trip-Hop, Dubstep) Железное небо / Kaiti Kink Ensemble - Under the Iron Sky (2012) [MP3, 320 kbps] ZondeR
0 | 0

1 | 2517

1

21.06.2014 19:55

Trip Hop, Abstract Hip Hop (Trip-Hop, Instrumental Hip-Hop, Broken Beat) The New Law - A Bull In The Woods (2018) [MP3, 320 kbps CBR] Darkferse
0 | 0

0 | 1134

7

10.01.2018 23:04

Trip Hop, Abstract Hip-Hop (Lossless) (Trip-Hop, Downtempo, Hip-Hop) Terranova - Dj-Kicks (1998) [FLAC (Tracks+.CUE), lossless] 8ad_R060d
0 | 0

3 | 2311

5

29.05.2013 18:29

Trip Hop, Abstract Hip-Hop (Lossless) (Trip-Hop, Jungle) Lamb - Fear of Fours + Limited Edition Bonus Disc (1999) [FLAC (Tracks+.CUE), lossless] 8ad_R060d
0 | 0

0 | 1905

5

06.05.2014 16:15

Trip Hop, Abstract Hip-Hop (Lossless) (Trip-Hop, Chillout, Dub, Downtempo) Sofa Surfers - 20 (2017) [FLAC (Tracks), Lossless] Web Бишеп
1 | 0

0 | 1068

2

25.10.2017 16:21

Trip Hop, Abstract Hip-Hop (Lossless) (Trip-Hop, Downtempo) Flunk - Your Beautiful Lies (2018) [FLAC (Tracks), lossless] web Darkferse
0 | 0

0 | 817

3

29.07.2018 10:12

Архив (электронная музыка) (Trip-hop, House) Faithless - The Dance (2010) [MP3, 320kbps CBR] ZondeR
0 | 0

1 | 2266

2

31.01.2018 20:21

20-Мар-2019 22:46

Топик был перенесен из форума Chillout, Lounge, Downtempo (Lossless) в форум Архив (HQ электронная музыка)


[cron robot]
 

Яндекс.Метрика powered by Sphinx


В Н И М А Н И Е
Сайт не распространяет и не хранит электронные версии произведений, а лишь бесплатно и без коммерческой выгоды (не требуя взамен платы,
SMS и т.д.) предоставляет доступ к создаваемому пользователями каталогу ссылок на торрент-файлы, которые содержат только списки хеш-сумм.
Убедительная просьба с жалобами обращаться напрямую к пользователю, разместившему торрент файл.

Вверх