Loading...
Error

(Downtempo, Dub, Breakbeat, Trip Hop) Boozoo Bajou - Grains (2009) [FLAC (Image + .CUE), lossless]

Статистика раздачи
Размер:  327 MB   |    Зарегистрирован:  6 лет 1 месяц   |    Скачан:  1 раз

Полного источника не было: 1 год 9 месяцев

Сидов:  0  |  0 KB/s  ]   Личеров:  0  |  0 KB/s  ]

* - сиды/пиры с внешних источников

   
 
Автор Сообщение

ost 

18-Июн-2014 16:46

Boozoo Bajou - Grains

Жанр: Downtempo, Dub, Breakbeat, Trip Hop
Год выпуска: 2009
Производитель диска: K7
Аудиокодек: FLAC
Тип рипа: Image + .CUE
Битрейт аудио: lossless
Продолжительность: 00:59:34

Треклист:

01. Flickers (04:11)
02. Sign (04:38)
03. Big Nick's (05:04)
04. Same Sun (05:46)
05. Grains (06:16)
06. Fuersattel (05:13)
07. Heavy On Me (06:44)
08. Kinder Ohne Strom (05:37)
09. Tonschraube (05:46)
10. Messengers (04:55)
11. Nebelkloster (05:19)
Exact Audio Copy V0.99 prebeta 4 from 23. January 2008

EAC extraction logfile from 28. February 2009, 12:44

Boozoo Bajou / Grains

Used drive : PIONEER DVD-RW DVR-112D Adapter: 1 ID: 0

Read mode : Secure
Utilize accurate stream : Yes
Defeat audio cache : Yes
Make use of C2 pointers : No

Read offset correction : 48
Overread into Lead-In and Lead-Out : No
Fill up missing offset samples with silence : Yes
Delete leading and trailing silent blocks : No
Null samples used in CRC calculations : Yes
Used interface : Installed external ASPI interface

Used output format : User Defined Encoder
Selected bitrate : 192 kBit/s
Quality : Low
Add ID3 tag : Yes
Command line compressor : C:\Program Files\E A C Audio\Flac\flac.exe
Additional command line options : -V -8 -T "artist=%a" -T "title=%t" -T "album=%g" -T "date=%y" -T "tracknumber=%n" -T "genre=%m" %s

TOC of the extracted CD

Track | Start | Length | Start sector | End sector
---------------------------------------------------------
1 | 0:00.00 | 4:11.68 | 0 | 18892
2 | 4:11.68 | 4:38.30 | 18893 | 39772
3 | 8:50.23 | 5:04.31 | 39773 | 62603
4 | 13:54.54 | 5:46.48 | 62604 | 88601
5 | 19:41.27 | 6:16.74 | 88602 | 116875
6 | 25:58.26 | 5:13.31 | 116876 | 140381
7 | 31:11.57 | 6:44.41 | 140382 | 170722
8 | 37:56.23 | 5:37.30 | 170723 | 196027
9 | 43:33.53 | 5:46.27 | 196028 | 222004
10 | 49:20.05 | 4:55.19 | 222005 | 244148
11 | 54:15.24 | 5:19.14 | 244149 | 268087

Range status and errors

Selected range

Filename G:\lossless-room.nnm.ru\Boozoo Bajou - Grains (FLAC)\Boozoo Bajou - Grains.wav

Peak level 98.8 %
Range quality 100.0 %
Test CRC 43A903DA
Copy CRC 43A903DA
Copy OK

No errors occurred

AccurateRip summary
Track 1 not present in database
Track 2 not present in database
Track 3 not present in database
Track 4 not present in database
Track 5 not present in database
Track 6 not present in database
Track 7 not present in database
Track 8 not present in database
Track 9 not present in database
Track 10 not present in database
Track 11 not present in database
None of the tracks are present in the AccurateRip database

End of status report

Этот торрент недоступен для скачивания без регистрации, однако доступен по публичной magnet-ссылке (источники с публичных трекеров). Перед использованием ссылки прочтите, пожалуйста Пользовательское соглашение, а также как можно дольше оставайтесь на раздаче! Для того, чтобы скачать сам торрент-файл (который видит больше источников), а также для того, чтобы поблагодарить релизера, вам необходимо зарегистрироваться. Если регистрироваться лень - вы можете также попробовать скачать релиз по нашим партнерским ссылкам ниже. Кроме того, зарегистрированным пользователям не показывается всплывающая реклама при скачивании.

[underverse.su].t41133.torrent
Трекер: Зарегистрирован   [ 23.06.2014 15:35 ]  

Статус: проверено (by Бишеп at 23.06.2014 18:00)
Поблагодарили: 1 человек
Тип торрента: публичный - доступные источники с открытых трекеров: 
Размер: 327 MB (занимает 0,07 DVDR, для записи нужно 1 болванка DVDR/RW)
 
 
Похожие темы
Форум Тема Автор Торрент Отв. Посл. сооб.
PsyChill, Ambient Dub (Downtempo, Dub, PsyChill) D. Batistatos - After Dark (2017) [MP3, 320 kbps CBR] Darkferse
1 | 0

0 | 1314

8

04.03.2017 15:25

PsyChill, Ambient Dub (Downtempo, Ambient, PsyChill) Koan - Serenity Side A (2017) [MP3, 320 kbps CBR] Darkferse
1 | 0

0 | 1494

16

11.03.2017 14:52

PsyChill, Ambient Dub (Downtempo, Psybient, PsyChill) Calicofrost - Altered States (2017) [MP3, 320 kbps CBR] Darkferse
1 | 0

0 | 1173

7

20.03.2017 21:38

PsyChill, Ambient Dub (Downtempo, Psydub, World) Monkey Puzzle - The Multi-Dimensional Satchel (EP) (2016) [MP3, 320 kbps CBR] Darkferse
0 | 0

0 | 1163

4

20.04.2017 10:57

PsyChill, Ambient Dub (Downtempo, PsyChill, World) Isea-N - World (2016) [MP3, 320 kbps CBR] Darkferse
0 | 0

0 | 1135

3

22.04.2017 21:08

PsyChill, Ambient Dub (Downtempo, Dub) The Bitzpan - More Than Cotton (EP) (2017) [MP3, 320 kbps CBR] Darkferse
0 | 0

0 | 1083

3

19.05.2017 13:56

PsyChill, Ambient Dub (Downtempo, PsyChill, Ambient) Eguana - Inevitability (2017) [MP3, 320 kbps CBR] Darkferse
1 | 0

0 | 1207

8

18.09.2017 12:29

PsyChill, Ambient Dub (Downtempo, Ambient, Dub, Psychill) Shpongle - Codex VI (2017) [MP3, 320 kbps CBR] Darkferse
1 | 0

0 | 1232

15

26.10.2017 22:40

PsyChill, Ambient Dub (Downtempo, Dub, Psychill) Cosmic Trigger - The Hallucinatory Mountain (2017) [MP3, 320 kbps CBR] Darkferse
2 | 0

0 | 1152

7

09.12.2017 19:56

PsyChill, Ambient Dub (Downtempo) Herrhausen & Treindl - Tangaris (2019) [MP3, 320 kbps CBR] Magnat
0 | 0

0 | 381

5

02.06.2019 11:51



Последний раз редактировалось: ost (23.06.2014 18:01), всего редактировалось 3 раз(а)

ost 

23-Июн-2014 15:35

Бишеп
Поправил

20-Мар-2019 22:46

Топик был перенесен из форума Chillout, Lounge, Downtempo (Lossless) в форум Архив (HQ электронная музыка)


[cron robot]
 

Яндекс.Метрика powered by Sphinx


В Н И М А Н И Е
Сайт не распространяет и не хранит электронные версии произведений, а лишь бесплатно и без коммерческой выгоды (не требуя взамен платы,
SMS и т.д.) предоставляет доступ к создаваемому пользователями каталогу ссылок на торрент-файлы, которые содержат только списки хеш-сумм.
Убедительная просьба с жалобами обращаться напрямую к пользователю, разместившему торрент файл.

Вверх