Loading...
Error

(Downtempo, Dub, Breakbeat, Trip Hop) Boozoo Bajou - Remixes (2003) [FLAC (Image+.CUE), lossless]

Статистика раздачи
Размер:  486 MB   |    Зарегистрирован:  6 лет 1 месяц   |    Скачан:  0 раз

Полного источника не было: 4 месяца 10 дней

Сидов:  0  |  0 KB/s  ]   Личеров:  0  |  0 KB/s  ]

* - сиды/пиры с внешних источников

   
 
Автор Сообщение

ost 

18-Июн-2014 17:18

Boozoo Bajou - Remixes

Жанр: Downtempo, Dub, Breakbeat, Trip Hop
Год выпуска: 2003
Производитель диска: Stereo Deluxe
Аудиокодек: FLAC
Тип рипа: Image+.CUE
Битрейт аудио: lossless
Продолжительность: 01:17:34

Треклист:

01. Common Feat. M.J. Blige - Come Close (Boozoo Bajou Remix) (05:56)
02. Tosca - Chocolate Elvis (Boozoo Bajou Soul Sufferer Version) (05:04)
03. Boozoo Bajou - Under My Sensi (Les Demon Flowers Mix) (06:41)
04. The Funky Lowlives - Bellaluna (Boozoo Bajou's Switchblade Mix) (07:00)
05. Mousse T. Feat. Emma Lanford - Gourmet De Funk (Boozoo Bajou's Homecooking Lessons) (06:04)
06. Boozoo Bajou - Camioux (Melodica Cut) (05:07)
07. Boozoo Bajou - Under My Sensi (Thievery Corporation Mix) (04:20)
08. Boozoo Bajou - Night Over Manaus (Soulboy Collective Version) (05:02)
09. Boozoo Bajou - Under My Sensi (Trio Elйtrico's Tip Kick Mix) (06:13)
10. Boozoo Bajou - Divers (The Funky Lowlives' Low Immersion Dub) (05:32)
11. Trьby Trio - A Go Go (Boozoo Bajou RMX) (05:46)
12. Boozoo Bajou - Camioux (Biggabush Version) (04:55)
13. Emo vs. Boozoo Bajou - Can't Take No More (04:28)
14. Boozoo Bajou - Lava (Freeform Arkestra Remix) (05:20)
REM GENRE Misc
REM DATE 2003
REM DISCID D5122C0E
REM COMMENT "ExactAudioCopy v0.99pb5"
PERFORMER "Boozoo Bajou"
TITLE "Remixes"
FILE "Boozoo Bajou - Remixes.flac" WAVE
TRACK 01 AUDIO
TITLE "Common Feat. M.J. Blige - Come Close (Boozoo Bajou Remix)"
PERFORMER "Boozoo Bajou"
FLAGS DCP
INDEX 01 00:00:00
TRACK 02 AUDIO
TITLE "Tosca - Chocolate Elvis (Boozoo Bajou Soul Sufferer Version)"
PERFORMER "Boozoo Bajou"
FLAGS DCP
INDEX 01 05:56:68
TRACK 03 AUDIO
TITLE "Boozoo Bajou - Under My Sensi (Les Demon Flowers Mix)"
PERFORMER "Boozoo Bajou"
FLAGS DCP
INDEX 01 11:01:49
TRACK 04 AUDIO
TITLE "The Funky Lowlives - Bellaluna (Boozoo Bajou's Switchblade Mix)"
PERFORMER "Boozoo Bajou"
FLAGS DCP
INDEX 01 17:43:05
TRACK 05 AUDIO
TITLE "Mousse T. Feat. Emma Lanford - Gourmet De Funk (Boozoo Bajou's Homecooking Le..."
PERFORMER "Boozoo Bajou"
FLAGS DCP
INDEX 01 24:43:04
TRACK 06 AUDIO
TITLE "Boozoo Bajou - Camioux (Melodica Cut)"
PERFORMER "Boozoo Bajou"
FLAGS DCP
INDEX 01 30:47:41
TRACK 07 AUDIO
TITLE "Boozoo Bajou - Under My Sensi (Thievery Corporation Mix)"
PERFORMER "Boozoo Bajou"
FLAGS DCP
INDEX 01 35:55:07
TRACK 08 AUDIO
TITLE "Boozoo Bajou - Night Over Manaus (Soulboy Collective Version)"
PERFORMER "Boozoo Bajou"
FLAGS DCP
INDEX 01 40:15:44
TRACK 09 AUDIO
TITLE "Boozoo Bajou - Under My Sensi (Trio Eletrico's Tip Kick Mix)"
PERFORMER "Boozoo Bajou"
FLAGS DCP
INDEX 01 45:17:50
TRACK 10 AUDIO
TITLE "Boozoo Bajou - Divers (The Funky Lowlives' Low Immersion Dub)"
PERFORMER "Boozoo Bajou"
FLAGS DCP
INDEX 01 51:31:34
TRACK 11 AUDIO
TITLE "Truby Trio - A Go Go (Boozoo Bajou RMX)"
PERFORMER "Boozoo Bajou"
FLAGS DCP
INDEX 01 57:03:68
TRACK 12 AUDIO
TITLE "Boozoo Bajou - Camioux (Biggabush Version)"
PERFORMER "Boozoo Bajou"
FLAGS DCP
INDEX 01 62:50:02
TRACK 13 AUDIO
TITLE "Emo vs. Boozoo Bajou - Can't Take No More"
PERFORMER "Boozoo Bajou"
FLAGS DCP
INDEX 01 67:45:36
TRACK 14 AUDIO
TITLE "Boozoo Bajou - Lava (Freeform Arkestra Remix)"
PERFORMER "Boozoo Bajou"
FLAGS DCP
INDEX 01 72:13:60

Exact Audio Copy V0.99 prebeta 5 from 4. May 2009

EAC extraction logfile from 16. June 2010, 14:05

Boozoo Bajou / Remixes

Used drive : PIONEER DVD-RW DVR-215D Adapter: 2 ID: 0

Read mode : Secure
Utilize accurate stream : Yes
Defeat audio cache : Yes
Make use of C2 pointers : No

Read offset correction : 48
Overread into Lead-In and Lead-Out : No
Fill up missing offset samples with silence : Yes
Delete leading and trailing silent blocks : No
Null samples used in CRC calculations : Yes
Used interface : Installed external ASPI interface

Used output format : User Defined Encoder
Selected bitrate : 768 kBit/s
Quality : High
Add ID3 tag : No
Command line compressor : C:\Program Files\Exact Audio Copy\FLAC\FLAC.EXE
Additional command line options : -T "DATE=%y" -T "GENRE=%m" -8 -V %s

TOC of the extracted CD

Track | Start | Length | Start sector | End sector
---------------------------------------------------------
1 | 0:00.00 | 5:56.68 | 0 | 26767
2 | 5:56.68 | 5:04.56 | 26768 | 49623
3 | 11:01.49 | 6:41.31 | 49624 | 79729
4 | 17:43.05 | 6:59.74 | 79730 | 111228
5 | 24:43.04 | 6:04.37 | 111229 | 138565
6 | 30:47.41 | 5:07.41 | 138566 | 161631
7 | 35:55.07 | 4:20.37 | 161632 | 181168
8 | 40:15.44 | 5:02.06 | 181169 | 203824
9 | 45:17.50 | 6:13.59 | 203825 | 231858
10 | 51:31.34 | 5:32.34 | 231859 | 256792
11 | 57:03.68 | 5:46.09 | 256793 | 282751
12 | 62:50.02 | 4:55.34 | 282752 | 304910
13 | 67:45.36 | 4:28.24 | 304911 | 325034
14 | 72:13.60 | 5:19.09 | 325035 | 348968

Range status and errors

Selected range

Filename D:\torrent\ripped by boccador\Boozoo Bajou - Remixes\Boozoo Bajou - Remixes.wav

Peak level 100.0 %
Range quality 100.0 %
Test CRC 69F295C1
Copy CRC 69F295C1
Copy OK

No errors occurred

AccurateRip summary

Track 1 accurately ripped (confidence 8) [FB31FC34]
Track 2 accurately ripped (confidence 8) [C794E2D1]
Track 3 accurately ripped (confidence 8) [EE4DE2BF]
Track 4 accurately ripped (confidence 8) [E7E297AA]
Track 5 accurately ripped (confidence 8) [D1C67BE4]
Track 6 accurately ripped (confidence 8) [5E30857B]
Track 7 accurately ripped (confidence 8) [2830E303]
Track 8 accurately ripped (confidence 8) [32F71661]
Track 9 accurately ripped (confidence 8) [8A7C38F2]
Track 10 accurately ripped (confidence 8) [4BC93301]
Track 11 accurately ripped (confidence 8) [45210B14]
Track 12 accurately ripped (confidence 8) [B86710B3]
Track 13 accurately ripped (confidence 8) [894A01E8]
Track 14 accurately ripped (confidence 8) [B92D41BA]

All tracks accurately ripped

End of status report

Этот торрент недоступен для скачивания без регистрации, однако доступен по публичной magnet-ссылке (источники с публичных трекеров). Перед использованием ссылки прочтите, пожалуйста Пользовательское соглашение, а также как можно дольше оставайтесь на раздаче! Для того, чтобы скачать сам торрент-файл (который видит больше источников), а также для того, чтобы поблагодарить релизера, вам необходимо зарегистрироваться. Если регистрироваться лень - вы можете также попробовать скачать релиз по нашим партнерским ссылкам ниже. Кроме того, зарегистрированным пользователям не показывается всплывающая реклама при скачивании.

[underverse.su].t41079.torrent
Трекер: Зарегистрирован   [ 19.06.2014 12:30 ]  

Статус: проверено (by Бишеп at 19.06.2014 12:44)
Поблагодарили: 1 человек
Тип торрента: публичный - доступные источники с открытых трекеров: 
Размер: 486 MB (занимает 0,11 DVDR, для записи нужно 1 болванка DVDR/RW)
 
 
Похожие темы
Форум Тема Автор Торрент Отв. Посл. сооб.
PsyChill, Ambient Dub (Downtempo, Dub, PsyChill) D. Batistatos - After Dark (2017) [MP3, 320 kbps CBR] Darkferse
1 | 0

0 | 1311

8

04.03.2017 15:25

PsyChill, Ambient Dub (Downtempo, Ambient, PsyChill) Koan - Serenity Side A (2017) [MP3, 320 kbps CBR] Darkferse
1 | 0

0 | 1492

16

11.03.2017 14:52

PsyChill, Ambient Dub (Downtempo, Psybient, PsyChill) Calicofrost - Altered States (2017) [MP3, 320 kbps CBR] Darkferse
1 | 0

0 | 1172

7

20.03.2017 21:38

PsyChill, Ambient Dub (Downtempo, Psydub, World) Monkey Puzzle - The Multi-Dimensional Satchel (EP) (2016) [MP3, 320 kbps CBR] Darkferse
0 | 0

0 | 1159

4

20.04.2017 10:57

PsyChill, Ambient Dub (Downtempo, PsyChill, World) Isea-N - World (2016) [MP3, 320 kbps CBR] Darkferse
0 | 0

0 | 1130

3

22.04.2017 21:08

PsyChill, Ambient Dub (Downtempo, Dub) The Bitzpan - More Than Cotton (EP) (2017) [MP3, 320 kbps CBR] Darkferse
0 | 0

0 | 1082

3

19.05.2017 13:56

PsyChill, Ambient Dub (Downtempo, PsyChill, Ambient) Eguana - Inevitability (2017) [MP3, 320 kbps CBR] Darkferse
1 | 0

0 | 1205

8

18.09.2017 12:29

PsyChill, Ambient Dub (Downtempo, Ambient, Dub, Psychill) Shpongle - Codex VI (2017) [MP3, 320 kbps CBR] Darkferse
1 | 0

0 | 1228

15

26.10.2017 22:40

PsyChill, Ambient Dub (Downtempo, Dub, Psychill) Cosmic Trigger - The Hallucinatory Mountain (2017) [MP3, 320 kbps CBR] Darkferse
2 | 0

0 | 1148

7

09.12.2017 19:56

PsyChill, Ambient Dub (Downtempo) Herrhausen & Treindl - Tangaris (2019) [MP3, 320 kbps CBR] Magnat
0 | 0

0 | 380

5

02.06.2019 11:51



Последний раз редактировалось: ost (19.06.2014 12:29), всего редактировалось 2 раз(а)

Бишеп Пол:Муж

18-Июн-2014 17:56

ost
Отсутствует лог извлечения EAC.

ost 

19-Июн-2014 12:32

Поправил

20-Мар-2019 22:46

Топик был перенесен из форума Chillout, Lounge, Downtempo (Lossless) в форум Архив (HQ электронная музыка)


[cron robot]
 

Яндекс.Метрика powered by Sphinx


В Н И М А Н И Е
Сайт не распространяет и не хранит электронные версии произведений, а лишь бесплатно и без коммерческой выгоды (не требуя взамен платы,
SMS и т.д.) предоставляет доступ к создаваемому пользователями каталогу ссылок на торрент-файлы, которые содержат только списки хеш-сумм.
Убедительная просьба с жалобами обращаться напрямую к пользователю, разместившему торрент файл.

Вверх