Loading...
Error

(Downtempo, Trip Hop, Leftfield) Paul Haslinger - Score (1999) [FLAC (Tracks+.CUE), lossless]

Статистика раздачи
Размер:  329 MB   |    Зарегистрирован:  6 лет 1 месяц   |    Скачан:  2 раза

Полного источника не было: 1 год 9 месяцев

Сидов:  0  |  0 KB/s  ]   Личеров:  0  |  0 KB/s  ]

* - сиды/пиры с внешних источников

   
 
Автор Сообщение

ost 

25-Июн-2014 12:12

Paul Haslinger - Score

Жанр: Downtempo, Trip Hop, Leftfield
Год выпуска: 1999
Производитель диска: RGB Records (US) ‎– RGB506-2
Аудиокодек: FLAC
Тип рипа: Tracks+.CUE
Битрейт аудио: lossless
Продолжительность: 00:57:22

Треклист:

01. Accidental Measures in Cool (04:57)
02. The Infinite Jest (3:51)
03. When Worlds Collide (04:56)
04. The Real Question (Is...) (03:48)
05. Fantastic Voyage (07:29)
06. Magheda (05:26)
07. Inbetween Nowhere (03:06)
08. Life, Lounge and Lesser Evils (05:30)
09. This Station (03:59)
10. Hardboiled Wonderland (04:25)
11. War in the Heart of Eden (06:00)
12. New India (03:51)
Exact Audio Copy V0.99 prebeta 4 from 23. January 2008
REM GENRE Electronic
REM DATE 1999
REM DISCID 9D0D720C
REM COMMENT "ExactAudioCopy v0.99pb4"
PERFORMER "Haslinger, Paul"
TITLE "Score"
FILE "01. Haslinger, Paul - Score - Accidental Measures in Cool.wav" WAVE
TRACK 01 AUDIO
TITLE "Accidental Measures in Cool"
PERFORMER "Haslinger, Paul"
INDEX 01 00:00:00
TRACK 02 AUDIO
TITLE "The Infinite Jest"
PERFORMER "Haslinger, Paul"
INDEX 00 04:56:49
FILE "02. Haslinger, Paul - Score - The Infinite Jest.wav" WAVE
INDEX 01 00:00:00
TRACK 03 AUDIO
TITLE "When Worlds Collide"
PERFORMER "Haslinger, Paul"
INDEX 00 03:50:55
FILE "03. Haslinger, Paul - Score - When Worlds Collide.wav" WAVE
INDEX 01 00:00:00
TRACK 04 AUDIO
TITLE "The Real Question (Is...)"
PERFORMER "Haslinger, Paul"
INDEX 00 04:54:13
FILE "04. Haslinger, Paul - Score - The Real Question (Is...).wav" WAVE
INDEX 01 00:00:00
TRACK 05 AUDIO
TITLE "Fantastic Voyage"
PERFORMER "Haslinger, Paul"
INDEX 00 03:47:35
FILE "05. Haslinger, Paul - Score - Fantastic Voyage.wav" WAVE
INDEX 01 00:00:00
TRACK 06 AUDIO
TITLE "Magheda"
PERFORMER "Haslinger, Paul"
INDEX 00 07:27:70
FILE "06. Haslinger, Paul - Score - Magheda.wav" WAVE
INDEX 01 00:00:00
TRACK 07 AUDIO
TITLE "Inbetween Nowhere"
PERFORMER "Haslinger, Paul"
INDEX 00 05:22:62
FILE "07. Haslinger, Paul - Score - Inbetween Nowhere.wav" WAVE
INDEX 01 00:00:00
TRACK 08 AUDIO
TITLE "Life, Lounge and Lesser Evils"
PERFORMER "Haslinger, Paul"
INDEX 00 03:05:65
FILE "08. Haslinger, Paul - Score - Life, Lounge and Lesser Evils.wav" WAVE
INDEX 01 00:00:00
TRACK 09 AUDIO
TITLE "This Station"
PERFORMER "Haslinger, Paul"
INDEX 00 05:28:30
FILE "09. Haslinger, Paul - Score - This Station.wav" WAVE
INDEX 01 00:00:00
TRACK 10 AUDIO
TITLE "Hardboiled Wonderland"
PERFORMER "Haslinger, Paul"
INDEX 00 03:56:29
FILE "10. Haslinger, Paul - Score - Hardboiled Wonderland.wav" WAVE
INDEX 01 00:00:00
TRACK 11 AUDIO
TITLE "War in the Heart of Eden"
PERFORMER "Haslinger, Paul"
INDEX 00 04:23:09
FILE "11. Haslinger, Paul - Score - War in the Heart of Eden.wav" WAVE
INDEX 01 00:00:00
TRACK 12 AUDIO
TITLE "New India"
PERFORMER "Haslinger, Paul"
INDEX 00 05:58:18
FILE "12. Haslinger, Paul - Score - New India.wav" WAVE
INDEX 01 00:00:00

Exact Audio Copy V0.99 prebeta 4 from 23. January 2008

EAC extraction logfile from 22. September 2009, 14:53

Haslinger, Paul / Score

Used drive : PLEXTOR DVDR PX-760A Adapter: 2 ID: 0

Read mode : Secure
Utilize accurate stream : Yes
Defeat audio cache : Yes
Make use of C2 pointers : No

Read offset correction : 30
Overread into Lead-In and Lead-Out : No
Fill up missing offset samples with silence : Yes
Delete leading and trailing silent blocks : No
Null samples used in CRC calculations : Yes
Used interface : Native Win32 interface for Win NT & 2000
Gap handling : Appended to previous track

Used output format : User Defined Encoder
Selected bitrate : 768 kBit/s
Quality : High
Add ID3 tag : Yes
Command line compressor : C:\Program Files\Exact Audio Copy\FLAC\FLAC.EXE
Additional command line options : -6 -V -T "ARTIST=%a" -T "TITLE=%t" -T "ALBUM=%g" -T "DATE=%y" -T "TRACKNUMBER=%n" -T "GENRE=%m" -T "COMMENT=%e" %s -o %d

TOC of the extracted CD

Track | Start | Length | Start sector | End sector
---------------------------------------------------------
1 | 0:00.00 | 4:57.10 | 0 | 22284
2 | 4:57.10 | 3:51.48 | 22285 | 39657
3 | 8:48.58 | 4:56.06 | 39658 | 61863
4 | 13:44.64 | 3:48.17 | 61864 | 78980
5 | 17:33.06 | 7:29.63 | 78981 | 112718
6 | 25:02.69 | 5:26.55 | 112719 | 137223
7 | 30:29.49 | 3:06.58 | 137224 | 151231
8 | 33:36.32 | 5:30.23 | 151232 | 176004
9 | 39:06.55 | 3:59.04 | 176005 | 193933
10 | 43:05.59 | 4:25.28 | 193934 | 213836
11 | 47:31.12 | 6:00.11 | 213837 | 240847
12 | 53:31.23 | 3:51.23 | 240848 | 258195

Track 1

Filename D:\My Documents\AAA - FLAC - DIR\Paul Haslinger - Score - 1999\01. Haslinger, Paul - Score - Accidental Measures in Cool.wav

Pre-gap length 0:00:02.00

Peak level 96.6 %
Track quality 100.0 %
Copy CRC 6C717C41
Accurately ripped (confidence 2) [F46D709D]
Copy OK

Track 2

Filename D:\My Documents\AAA - FLAC - DIR\Paul Haslinger - Score - 1999\02. Haslinger, Paul - Score - The Infinite Jest.wav

Pre-gap length 0:00:00.36

Peak level 96.6 %
Track quality 100.0 %
Copy CRC 4AEE96DC
Accurately ripped (confidence 2) [2F9EED06]
Copy OK

Track 3

Filename D:\My Documents\AAA - FLAC - DIR\Paul Haslinger - Score - 1999\03. Haslinger, Paul - Score - When Worlds Collide.wav

Pre-gap length 0:00:00.68

Peak level 96.6 %
Track quality 100.0 %
Copy CRC 10A4137A
Accurately ripped (confidence 2) [26442AD3]
Copy OK

Track 4

Filename D:\My Documents\AAA - FLAC - DIR\Paul Haslinger - Score - 1999\04. Haslinger, Paul - Score - The Real Question (Is...).wav

Pre-gap length 0:00:01.68

Peak level 96.5 %
Track quality 100.0 %
Copy CRC BCA13A5A
Accurately ripped (confidence 2) [94F12FE9]
Copy OK

Track 5

Filename D:\My Documents\AAA - FLAC - DIR\Paul Haslinger - Score - 1999\05. Haslinger, Paul - Score - Fantastic Voyage.wav

Pre-gap length 0:00:00.57

Peak level 96.6 %
Track quality 100.0 %
Copy CRC 4A979E06
Accurately ripped (confidence 2) [A623383F]
Copy OK

Track 6

Filename D:\My Documents\AAA - FLAC - DIR\Paul Haslinger - Score - 1999\06. Haslinger, Paul - Score - Magheda.wav

Pre-gap length 0:00:01.68

Peak level 96.6 %
Track quality 99.9 %
Copy CRC DB0287ED
Accurately ripped (confidence 2) [B087BA61]
Copy OK

Track 7

Filename D:\My Documents\AAA - FLAC - DIR\Paul Haslinger - Score - 1999\07. Haslinger, Paul - Score - Inbetween Nowhere.wav

Pre-gap length 0:00:03.68

Peak level 86.8 %
Track quality 100.0 %
Copy CRC 7AE09BFC
Accurately ripped (confidence 2) [A744388B]
Copy OK

Track 8

Filename D:\My Documents\AAA - FLAC - DIR\Paul Haslinger - Score - 1999\08. Haslinger, Paul - Score - Life, Lounge and Lesser Evils.wav

Pre-gap length 0:00:00.68

Peak level 96.5 %
Track quality 100.0 %
Copy CRC 31DF3F52
Accurately ripped (confidence 2) [6EE9D1C6]
Copy OK

Track 9

Filename D:\My Documents\AAA - FLAC - DIR\Paul Haslinger - Score - 1999\09. Haslinger, Paul - Score - This Station.wav

Pre-gap length 0:00:01.68

Peak level 96.6 %
Track quality 99.9 %
Copy CRC 214781AA
Accurately ripped (confidence 2) [5FC834CF]
Copy OK

Track 10

Filename D:\My Documents\AAA - FLAC - DIR\Paul Haslinger - Score - 1999\10. Haslinger, Paul - Score - Hardboiled Wonderland.wav

Pre-gap length 0:00:02.50

Peak level 96.6 %
Track quality 100.0 %
Copy CRC E4C4CFBF
Accurately ripped (confidence 2) [14BB6AFF]
Copy OK

Track 11

Filename D:\My Documents\AAA - FLAC - DIR\Paul Haslinger - Score - 1999\11. Haslinger, Paul - Score - War in the Heart of Eden.wav

Pre-gap length 0:00:02.19

Peak level 96.6 %
Track quality 100.0 %
Copy CRC 53624E78
Accurately ripped (confidence 2) [484D1877]
Copy OK

Track 12

Filename D:\My Documents\AAA - FLAC - DIR\Paul Haslinger - Score - 1999\12. Haslinger, Paul - Score - New India.wav

Pre-gap length 0:00:01.68

Peak level 96.6 %
Track quality 100.0 %
Copy CRC 0CEFB45F
Accurately ripped (confidence 2) [2FE7113C]
Copy OK

All tracks accurately ripped

No errors occurred

End of status report

Этот торрент недоступен для скачивания без регистрации, однако доступен по публичной magnet-ссылке (источники с публичных трекеров). Перед использованием ссылки прочтите, пожалуйста Пользовательское соглашение, а также как можно дольше оставайтесь на раздаче! Для того, чтобы скачать сам торрент-файл (который видит больше источников), а также для того, чтобы поблагодарить релизера, вам необходимо зарегистрироваться. Если регистрироваться лень - вы можете также попробовать скачать релиз по нашим партнерским ссылкам ниже. Кроме того, зарегистрированным пользователям не показывается всплывающая реклама при скачивании.

[underverse.su].t41211.torrent
Трекер: Зарегистрирован   [ 25.06.2014 13:55 ]  

Статус: проверено (by Бишеп at 25.06.2014 15:15)
Поблагодарили: пока никто не поблагодарил...
Тип торрента: публичный - доступные источники с открытых трекеров: 
Размер: 329 MB (занимает 0,07 DVDR, для записи нужно 1 болванка DVDR/RW)
 
 
Похожие темы
Форум Тема Автор Торрент Отв. Посл. сооб.
PsyChill, Ambient Dub (Downtempo, Dub, PsyChill) D. Batistatos - After Dark (2017) [MP3, 320 kbps CBR] Darkferse
1 | 0

0 | 1314

8

04.03.2017 15:25

PsyChill, Ambient Dub (Downtempo, Ambient, PsyChill) Koan - Serenity Side A (2017) [MP3, 320 kbps CBR] Darkferse
1 | 0

0 | 1493

16

11.03.2017 14:52

PsyChill, Ambient Dub (Downtempo, Psybient, PsyChill) Calicofrost - Altered States (2017) [MP3, 320 kbps CBR] Darkferse
1 | 0

0 | 1173

7

20.03.2017 21:38

PsyChill, Ambient Dub (Downtempo, Psydub, World) Monkey Puzzle - The Multi-Dimensional Satchel (EP) (2016) [MP3, 320 kbps CBR] Darkferse
0 | 0

0 | 1162

4

20.04.2017 10:57

PsyChill, Ambient Dub (Downtempo, PsyChill, World) Isea-N - World (2016) [MP3, 320 kbps CBR] Darkferse
0 | 0

0 | 1133

3

22.04.2017 21:08

PsyChill, Ambient Dub (Downtempo, Dub) The Bitzpan - More Than Cotton (EP) (2017) [MP3, 320 kbps CBR] Darkferse
0 | 0

0 | 1083

3

19.05.2017 13:56

PsyChill, Ambient Dub (Downtempo, PsyChill, Ambient) Eguana - Inevitability (2017) [MP3, 320 kbps CBR] Darkferse
1 | 0

0 | 1207

8

18.09.2017 12:29

PsyChill, Ambient Dub (Downtempo, Ambient, Dub, Psychill) Shpongle - Codex VI (2017) [MP3, 320 kbps CBR] Darkferse
1 | 0

0 | 1230

15

26.10.2017 22:40

PsyChill, Ambient Dub (Downtempo, Dub, Psychill) Cosmic Trigger - The Hallucinatory Mountain (2017) [MP3, 320 kbps CBR] Darkferse
2 | 0

0 | 1151

7

09.12.2017 19:56

PsyChill, Ambient Dub (Downtempo) Herrhausen & Treindl - Tangaris (2019) [MP3, 320 kbps CBR] Magnat
0 | 0

0 | 381

5

02.06.2019 11:51



Последний раз редактировалось: ost (25.06.2014 14:00), всего редактировалось 2 раз(а)

20-Мар-2019 22:46

Топик был перенесен из форума Chillout, Lounge, Downtempo (Lossless) в форум Архив (HQ электронная музыка)


[cron robot]
 

Яндекс.Метрика powered by Sphinx


В Н И М А Н И Е
Сайт не распространяет и не хранит электронные версии произведений, а лишь бесплатно и без коммерческой выгоды (не требуя взамен платы,
SMS и т.д.) предоставляет доступ к создаваемому пользователями каталогу ссылок на торрент-файлы, которые содержат только списки хеш-сумм.
Убедительная просьба с жалобами обращаться напрямую к пользователю, разместившему торрент файл.

Вверх