Loading...
Error

(Hardcore, Techno) Scooter - No Time To Chill (Japan) (1998) [FLAC (Tracks+.CUE), Lossless]

Статистика раздачи
Размер:  502 MB   |    Зарегистрирован:  5 лет 3 месяца   |    Скачан:  5 раз

Полного источника не было: 1 час 51 минута

Сидов:  0  |  0 KB/s  ]   Личеров:  0  |  0 KB/s  ]

* - сиды/пиры с внешних источников

   
 
Автор Сообщение

Бишеп Пол:Муж

30-Окт-2014 21:03

Scooter - No Time To Chill

Жанр: Hardcore, Techno
Год выпуска: 1998
Производитель диска: Victor VICP-60514
Аудиокодек: FLAC
Тип рипа: Tracks+.CUE
Битрейт аудио: lossless
Продолжительность: 01:05:52


Треклист:
01. Last Warning
02. How Much Is The Fish
03. We Are The Greatest
04. Call Me Manana
05. Don't Stop
06. I Was Made For Lovin' You
07. Frequent Traveller
08. Eyes Without A Face
09. Hands Up!
10. Everything's Borrowed
11. Expecting More From Ratty
12. Time And Space
13. How Much Is The Fish (Extended Fish)
14. How Much Is The Fish (Clubfish)
15. We Are The Greatest (Extended)
16. Sputnik

Exact Audio Copy V1.0 beta 3 from 29. August 2011

EAC extraction logfile from 13. October 2014, 23:54

Scooter / No Time To Chill

Used drive : HL-DT-STDVDRAM GSA-T10N Adapter: 0 ID: 0

Read mode : Secure
Utilize accurate stream : Yes
Defeat audio cache : Yes
Make use of C2 pointers : No

Read offset correction : 667
Overread into Lead-In and Lead-Out : No
Fill up missing offset samples with silence : Yes
Delete leading and trailing silent blocks : No
Null samples used in CRC calculations : Yes
Used interface : Installed external ASPI interface
Gap handling : Appended to previous track

Used output format : User Defined Encoder
Selected bitrate : 1024 kBit/s
Quality : High
Add ID3 tag : No
Command line compressor : D:\Program Files\Foobar2000\encoders\flac.exe
Additional command line options : -V -8 -T "Date=%year%" -T "Genre=%genre%" %source%

TOC of the extracted CD

Track | Start | Length | Start sector | End sector
---------------------------------------------------------
1 | 0:00.37 | 0:56.45 | 37 | 4281
2 | 0:57.07 | 3:45.67 | 4282 | 21223
3 | 4:42.74 | 5:08.45 | 21224 | 44368
4 | 9:51.44 | 3:56.05 | 44369 | 62073
5 | 13:47.49 | 3:41.68 | 62074 | 78716
6 | 17:29.42 | 3:34.22 | 78717 | 94788
7 | 21:03.64 | 3:37.65 | 94789 | 111128
8 | 24:41.54 | 3:19.30 | 111129 | 126083
9 | 28:01.09 | 4:07.55 | 126084 | 144663
10 | 32:08.64 | 5:15.25 | 144664 | 168313
11 | 37:24.14 | 4:11.73 | 168314 | 187211
12 | 41:36.12 | 4:52.00 | 187212 | 209111
13 | 46:28.12 | 5:25.47 | 209112 | 233533
14 | 51:53.59 | 6:14.55 | 233534 | 261638
15 | 58:08.39 | 4:36.23 | 261639 | 282361
16 | 62:44.62 | 3:07.02 | 282362 | 296388

Track 1

Filename D:\Desktop - копия\Scooter - No Time To Chill (Japan) (1998)\01. Last Warning.wav

Pre-gap length 0:00:02.37

Peak level 70.7 %
Extraction speed 1.6 X
Track quality 100.0 %
Test CRC 2B7C85C9
Copy CRC 2B7C85C9
Accurately ripped (confidence 1) [83BF63AC] (AR v2)
Copy OK

Track 2

Filename D:\Desktop - копия\Scooter - No Time To Chill (Japan) (1998)\02. How Much Is The Fish.wav

Peak level 99.9 %
Extraction speed 2.5 X
Track quality 100.0 %
Test CRC F80E6566
Copy CRC F80E6566
Accurately ripped (confidence 1) [175FA9FB] (AR v2)
Copy OK

Track 3

Filename D:\Desktop - копия\Scooter - No Time To Chill (Japan) (1998)\03. We Are The Greatest.wav

Pre-gap length 0:00:00.16

Peak level 79.4 %
Extraction speed 2.8 X
Track quality 100.0 %
Test CRC A815E8B4
Copy CRC A815E8B4
Accurately ripped (confidence 1) [73AF8C9B] (AR v2)
Copy OK

Track 4

Filename D:\Desktop - копия\Scooter - No Time To Chill (Japan) (1998)\04. Call Me Manana.wav

Pre-gap length 0:00:00.41

Peak level 81.2 %
Extraction speed 2.5 X
Track quality 99.9 %
Test CRC BA2708A5
Copy CRC BA2708A5
Accurately ripped (confidence 1) [6B69EC7E] (AR v2)
Copy OK

Track 5

Filename D:\Desktop - копия\Scooter - No Time To Chill (Japan) (1998)\05. Don't Stop.wav

Pre-gap length 0:00:01.24

Peak level 99.9 %
Extraction speed 3.1 X
Track quality 100.0 %
Test CRC 7D935885
Copy CRC 7D935885
Accurately ripped (confidence 1) [03AEBA1A] (AR v2)
Copy OK

Track 6

Filename D:\Desktop - копия\Scooter - No Time To Chill (Japan) (1998)\06. I Was Made For Lovin' You.wav

Pre-gap length 0:00:01.62

Peak level 89.0 %
Extraction speed 3.1 X
Track quality 100.0 %
Test CRC DAE582D7
Copy CRC DAE582D7
Accurately ripped (confidence 1) [5FEF67F0] (AR v2)
Copy OK

Track 7

Filename D:\Desktop - копия\Scooter - No Time To Chill (Japan) (1998)\07. Frequent Traveller.wav

Pre-gap length 0:00:01.24

Peak level 89.1 %
Extraction speed 3.4 X
Track quality 100.0 %
Test CRC 061C937C
Copy CRC 061C937C
Accurately ripped (confidence 1) [96BC2DD5] (AR v2)
Copy OK

Track 8

Filename D:\Desktop - копия\Scooter - No Time To Chill (Japan) (1998)\08. Eyes Without A Face.wav

Pre-gap length 0:00:02.19

Peak level 77.7 %
Extraction speed 3.5 X
Track quality 100.0 %
Test CRC B3E86F65
Copy CRC B3E86F65
Accurately ripped (confidence 1) [16CFEFB7] (AR v2)
Copy OK

Track 9

Filename D:\Desktop - копия\Scooter - No Time To Chill (Japan) (1998)\09. Hands Up!.wav

Pre-gap length 0:00:01.14

Peak level 92.7 %
Extraction speed 3.8 X
Track quality 100.0 %
Test CRC 766A4098
Copy CRC 766A4098
Accurately ripped (confidence 1) [67A299EA] (AR v2)
Copy OK

Track 10

Filename D:\Desktop - копия\Scooter - No Time To Chill (Japan) (1998)\10. Everything's Borrowed.wav

Pre-gap length 0:00:01.44

Peak level 89.1 %
Extraction speed 4.0 X
Track quality 100.0 %
Test CRC 048990D9
Copy CRC 048990D9
Accurately ripped (confidence 1) [1EBC6446] (AR v2)
Copy OK

Track 11

Filename D:\Desktop - копия\Scooter - No Time To Chill (Japan) (1998)\11. Expecting More From Ratty.wav

Pre-gap length 0:00:01.24

Peak level 90.1 %
Extraction speed 3.6 X
Track quality 99.9 %
Test CRC EEDDDE1C
Copy CRC EEDDDE1C
Accurately ripped (confidence 1) [2831579E] (AR v2)
Copy OK

Track 12

Filename D:\Desktop - копия\Scooter - No Time To Chill (Japan) (1998)\12. Time And Space.wav

Pre-gap length 0:00:01.32

Peak level 99.6 %
Extraction speed 4.3 X
Track quality 100.0 %
Test CRC D5DC8058
Copy CRC D5DC8058
Accurately ripped (confidence 1) [4127E68A] (AR v2)
Copy OK

Track 13

Filename D:\Desktop - копия\Scooter - No Time To Chill (Japan) (1998)\13. How Much Is The Fish (Extended Fish).wav

Pre-gap length 0:00:02.37

Peak level 99.7 %
Extraction speed 4.5 X
Track quality 100.0 %
Test CRC 1F5A853A
Copy CRC 1F5A853A
Accurately ripped (confidence 1) [37D2672A] (AR v2)
Copy OK

Track 14

Filename D:\Desktop - копия\Scooter - No Time To Chill (Japan) (1998)\14. How Much Is The Fish (Clubfish).wav

Pre-gap length 0:00:01.14

Peak level 95.1 %
Extraction speed 4.7 X
Track quality 100.0 %
Test CRC 63668A3F
Copy CRC 63668A3F
Accurately ripped (confidence 1) [0550F3FA] (AR v2)
Copy OK

Track 15

Filename D:\Desktop - копия\Scooter - No Time To Chill (Japan) (1998)\15. We Are The Greatest (Extended).wav

Pre-gap length 0:00:02.74

Peak level 99.9 %
Extraction speed 4.8 X
Track quality 100.0 %
Test CRC DA428DBB
Copy CRC DA428DBB
Accurately ripped (confidence 1) [64F8B5D4] (AR v2)
Copy OK

Track 16

Filename D:\Desktop - копия\Scooter - No Time To Chill (Japan) (1998)\16. Sputnik.wav

Pre-gap length 0:00:00.17

Peak level 56.2 %
Extraction speed 4.5 X
Track quality 100.0 %
Test CRC 5AE4EA66
Copy CRC 5AE4EA66
Accurately ripped (confidence 1) [31FBC468] (AR v2)
Copy OK

All tracks accurately ripped

No errors occurred

End of status report

==== Log checksum A10F5FB110A81C7C99C00F30D9FAA66CA9A7F87A7D02DD5B797D05AEE6070A28 ====

REM GENRE Techno
REM DATE 1998
REM DISCID ED0F6F10
REM COMMENT "ExactAudioCopy v1.0b3"
PERFORMER "Scooter"
TITLE "No Time To Chill"
FILE "01. Last Warning.wav" WAVE
TRACK 01 AUDIO
TITLE "Last Warning"
PERFORMER "Scooter"
PREGAP 00:00:37
INDEX 01 00:00:00
FILE "02. How Much Is The Fish.wav" WAVE
TRACK 02 AUDIO
TITLE "How Much Is The Fish?"
PERFORMER "Scooter"
INDEX 01 00:00:00
TRACK 03 AUDIO
TITLE "We Are The Greatest"
PERFORMER "Scooter"
INDEX 00 03:45:51
FILE "03. We Are The Greatest.wav" WAVE
INDEX 01 00:00:00
TRACK 04 AUDIO
TITLE "Call Me Manana"
PERFORMER "Scooter"
INDEX 00 05:08:04
FILE "04. Call Me Manana.wav" WAVE
INDEX 01 00:00:00
TRACK 05 AUDIO
TITLE "Don't Stop"
PERFORMER "Scooter"
INDEX 00 03:54:56
FILE "05. Don't Stop.wav" WAVE
INDEX 01 00:00:00
TRACK 06 AUDIO
TITLE "I Was Made For Lovin' You"
PERFORMER "Scooter"
INDEX 00 03:40:06
FILE "06. I Was Made For Lovin' You.wav" WAVE
INDEX 01 00:00:00
TRACK 07 AUDIO
TITLE "Frequent Traveller"
PERFORMER "Scooter"
INDEX 00 03:32:73
FILE "07. Frequent Traveller.wav" WAVE
INDEX 01 00:00:00
TRACK 08 AUDIO
TITLE "Eyes Without A Face"
PERFORMER "Scooter"
INDEX 00 03:35:46
FILE "08. Eyes Without A Face.wav" WAVE
INDEX 01 00:00:00
TRACK 09 AUDIO
TITLE "Hands Up!"
PERFORMER "Scooter"
INDEX 00 03:18:16
FILE "09. Hands Up!.wav" WAVE
INDEX 01 00:00:00
TRACK 10 AUDIO
TITLE "Everything's Borrowed"
PERFORMER "Scooter"
INDEX 00 04:06:11
FILE "10. Everything's Borrowed.wav" WAVE
INDEX 01 00:00:00
TRACK 11 AUDIO
TITLE "Expecting More From Ratty"
PERFORMER "Scooter"
INDEX 00 05:14:01
FILE "11. Expecting More From Ratty.wav" WAVE
INDEX 01 00:00:00
TRACK 12 AUDIO
TITLE "Time And Space"
PERFORMER "Scooter"
INDEX 00 04:10:41
FILE "12. Time And Space.wav" WAVE
INDEX 01 00:00:00
TRACK 13 AUDIO
TITLE "How Much Is The Fish? (Extended Fish)"
PERFORMER "Scooter"
INDEX 00 04:49:38
FILE "13. How Much Is The Fish (Extended Fish).wav" WAVE
INDEX 01 00:00:00
TRACK 14 AUDIO
TITLE "How Much Is The Fish? (Clubfish)"
PERFORMER "Scooter"
INDEX 00 05:24:33
FILE "14. How Much Is The Fish (Clubfish).wav" WAVE
INDEX 01 00:00:00
TRACK 15 AUDIO
TITLE "We Are The Greatest (Extended)"
PERFORMER "Scooter"
INDEX 00 06:11:56
FILE "15. We Are The Greatest (Extended).wav" WAVE
INDEX 01 00:00:00
TRACK 16 AUDIO
TITLE "Sputnik"
PERFORMER "Scooter"
INDEX 00 04:36:06
FILE "16. Sputnik.wav" WAVE
INDEX 01 00:00:00

Этот торрент недоступен для скачивания без регистрации, однако доступен по публичной magnet-ссылке (источники с публичных трекеров). Перед использованием ссылки прочтите, пожалуйста Пользовательское соглашение, а также как можно дольше оставайтесь на раздаче! Для того, чтобы скачать сам торрент-файл (который видит больше источников), а также для того, чтобы поблагодарить релизера, вам необходимо зарегистрироваться. Если регистрироваться лень - вы можете также попробовать скачать релиз по нашим партнерским ссылкам ниже. Кроме того, зарегистрированным пользователям не показывается всплывающая реклама при скачивании.

[underverse.su].t45747.torrent
Трекер: Зарегистрирован   [ 30.10.2014 21:03 ]  

Статус: проверено (by Бишеп at 30.10.2014 21:04)
Поблагодарили: пока никто не поблагодарил...
Тип торрента: публичный - доступные источники с открытых трекеров: 
Размер: 502 MB (занимает 0,11 DVDR, для записи нужно 1 болванка DVDR/RW)
 
 
Похожие темы
Форум Тема Автор Торрент Отв. Посл. сооб.
Hardcore, Hardstyle, Jumpstyle (Hardcore, Gabber) Furyan - Trial By Fury (2017) [MP3, 320 kbps CBR] Darkferse
0 | 0

0 | 1039

1

10.04.2017 02:38

Hardcore, Hardstyle, Jumpstyle (Hardcore, Techno, Gabber) Flamman & Abraxas - Enter The Dragon (1997) [MP3, 320 kbps CBR] Darkferse
2 | 0

0 | 1265

1

07.04.2017 20:42

Hardcore, Hardstyle, Jumpstyle (Hardcore, Gabber) Neophyte - Hardcore (1997) [MP3, 320 kbps CBR] Darkferse
1 | 0

0 | 919

1

07.06.2017 21:11

Hardcore, Hardstyle, Jumpstyle (Hardcore, Hardance) Charly Lownoise & Mental Theo - Best Of 25 Years Anniversary (2019) [MP3, 320 kbps CBR] 90ytr90
0 | 0

0 | 606

5

01.02.2019 21:15

Сборники (Hardcore, Hard Dance, Hard House, Hardstyle, 4 Beat, Dancecore, Hardbass) VA - Hardcore Festival Top 100 Vol.1 (2CD) (2018) [MP3, 320 kbps CBR] 90ytr90
9 | 0

0 | 556

1

15.11.2018 17:10

Сборники (Hardcore, Hardstyle, Jumpstyle) VA - Hardcore Hammer Vol.1 [Quadrophon Records Germany] (2019) [MP3, 320 kbps CBR] 90ytr90
0 | 0

0 | 331

2

24.02.2019 10:22

Неофициальные и внежанровые сборники (Hardcore, Jumpstyle, Hardstyle) VA - Flashback: Third Edition (2018) [MP3, 320 kbps CBR] 90ytr90
0 | 1

0 | 320

1

25.10.2018 18:10

Hardcore, Hardstyle, Jumpstyle (Lossless) (Hardcore, Techno) Scooter - No Time to Chill (1998) [FLAC (Image+.CUE), Lossless] Бишеп
3 | 0

0 | 2599

8

11.04.2012 17:02

Hardcore, Hardstyle, Jumpstyle (Lossless) (Hardcore, Techno) Scooter - 20 Years Of Hardcore (2013) (2CD) [FLAC (Image+.CUE), Lossless] Бишеп
3 | 0

0 | 3812

9

13.12.2013 16:21

Hardcore, Hardstyle, Jumpstyle (Lossless) (Hardcore, Techno, Abstract) Chaos Face - Doom Ride (1994) [FLAC (Tracks+.CUE), lossless] Darkferse
2 | 0

0 | 1078

1

18.04.2017 13:23


Яндекс.Метрика powered by Sphinx


В Н И М А Н И Е
Сайт не распространяет и не хранит электронные версии произведений, а лишь бесплатно и без коммерческой выгоды (не требуя взамен платы,
SMS и т.д.) предоставляет доступ к создаваемому пользователями каталогу ссылок на торрент-файлы, которые содержат только списки хеш-сумм.
Убедительная просьба с жалобами обращаться напрямую к пользователю, разместившему торрент файл.

Вверх