Loading...
Error

Reel Rock Film Tour 2014 - Valley Uprising [2014 г., Скалолазание, WEB-DL] Original (ENG)

Статистика раздачи
Размер:  4,35 GB   |    Зарегистрирован:  4 года 6 месяцев   |    Скачан:  2 раза

Полного источника не было: 29 дней

Сидов:  0  |  0 KB/s  ]   Личеров:  0  |  0 KB/s  ]

* - сиды/пиры с внешних источников

   
 
Автор Сообщение

piro131 

16-Ноя-2014 18:20

Reel Rock Film Tour 2014 - Valley Uprising


Год выпуска: 2014
Страна: США
Вид спорта: Скалолазание
Участники: Yosemite National Park
Описание:
The Reel Rock Film Tour is one of the world’s fastest growing short film festivals and is ready to once again thrill audiences this autumn with events across Ireland and the U.K.
This year’s Reel Rock Tour showcases the feature length documentary - VALLEY UPRISING - which will treat adventure loving audiences to a rare trip back in time to experience 60 years of climbing history, epic rivalry, adventure and rebellion.

Vividly brought to life on the big screen through digitally animated-archival photography, spectacular movie footage from today and the past as well as interviews with climbing legends, VALLEY UPRISING tells the story of the bold men and women that broke with convention and redefined the limits of human possibility in California’s Yosemite National Park.
Качество видео: WEB-DL 720p

Продолжительность: 01:42:54
Видео: AVC, 1280x720 (16:9), 23.976, ~5736 Кbps
Аудио: AAC (LC), 320 Kbps, 2 Ch., 48.0 KHz [Оригинал, Английские комментарии]


General
Complete name : \Reel Rock Film Tour 2014\Reel Rock 9 Valley Uprising [2014].mov
Format : MPEG-4
Format profile : QuickTime
Codec ID : qt
File size : 4.35 GiB
Duration : 1h 42mn
Overall bit rate : 6 054 Kbps
Encoded date : UTC 2014-09-05 14:18:35
Tagged date : UTC 2014-09-05 20:30:44
Writing library : Apple QuickTime
Media/UUID : A3478FD6-2E41-41F4-9A82-0C01A5D79830
Media/History/UUID : 07F00FED-D149-4A01-A9DA-E3F7E8DCB306

Video
ID : 1
Format : AVC
Format/Info : Advanced Video Codec
Format profile : Main@L4.1
Format settings, CABAC : No
Format settings, ReFrames : 2 frames
Codec ID : avc1
Codec ID/Info : Advanced Video Coding
Duration : 1h 42mn
Bit rate : 5 736 Kbps
Width : 1 280 pixels
Height : 720 pixels
Display aspect ratio : 16:9
Frame rate mode : Constant
Frame rate : 23.976 fps
Color space : YUV
Chroma subsampling : 4:2:0
Bit depth : 8 bits
Scan type : Progressive
Bits/(Pixel*Frame) : 0.273
Stream size : 4.12 GiB (95%)
Language : English
Encoded date : UTC 2014-09-05 20:24:47
Tagged date : UTC 2014-09-05 20:30:44
Color primaries : BT.709
Transfer characteristics : BT.709
Matrix coefficients : BT.709
Color range : Limited

Audio
ID : 2
Format : AAC
Format/Info : Advanced Audio Codec
Format profile : LC
Codec ID : 40
Duration : 1h 42mn
Source duration : 1h 42mn
Bit rate mode : Constant
Bit rate : 320 Kbps
Channel(s) : 2 channels
Channel positions : Front: L R
Sampling rate : 48.0 KHz
Compression mode : Lossy
Stream size : 231 MiB (5%)
Source stream size : 231 MiB (5%)
Language : English
Encoded date : UTC 2014-09-05 20:24:47
Tagged date : UTC 2014-09-05 20:30:44
picpicpicpicpic
Для увеличения картинки щелкните мышкой по превью

Этот торрент недоступен для скачивания без регистрации, однако доступен по публичной magnet-ссылке (источники с публичных трекеров). Перед использованием ссылки прочтите, пожалуйста Пользовательское соглашение, а также как можно дольше оставайтесь на раздаче! Для того, чтобы скачать сам торрент-файл (который видит больше источников), а также для того, чтобы поблагодарить релизера, вам необходимо зарегистрироваться. Если регистрироваться лень - вы можете также попробовать скачать релиз по нашим партнерским ссылкам ниже. Кроме того, зарегистрированным пользователям не показывается всплывающая реклама при скачивании.

[underverse.su].t46320.torrent
Трекер: Зарегистрирован   [ 13.05.2015 15:41 ]  

Статус: # сомнительно (by Ведьмочка at 13.05.2015 15:41)
Поблагодарили: пока никто не поблагодарил...
Тип торрента: публичный - доступные источники с открытых трекеров: 
Размер: 4,35 GB (занимает 0,99 DVDR, для записи нужно 1 болванка DVDR/RW)
 
 


Последний раз редактировалось: piro131 (20.12.2014 10:25), всего редактировалось 1 раз

Паукан Пол:Муж

01-Дек-2014 16:20

Скриншоты не залились, битрейт не указан.

Яндекс.Метрика powered by Sphinx


В Н И М А Н И Е
Сайт не распространяет и не хранит электронные версии произведений, а лишь бесплатно и без коммерческой выгоды (не требуя взамен платы,
SMS и т.д.) предоставляет доступ к создаваемому пользователями каталогу ссылок на торрент-файлы, которые содержат только списки хеш-сумм.
Убедительная просьба с жалобами обращаться напрямую к пользователю, разместившему торрент файл.

Вверх