Loading...
Error

Танцы (Выпуски: 1-20 из 20) [2014 г., Танцевальное шоу, WEB-DLRip]

Статистика раздачи
Размер:  24,19 GB   |    Зарегистрирован:  5 лет 6 месяцев   |    Скачан:  2 раза

Полного источника не было: 4 года 7 месяцев

Сидов:  0  |  0 KB/s  ]   Личеров:  0  |  0 KB/s  ]

* - сиды/пиры с внешних источников

   
 
Автор Сообщение

Ведьмочка Пол:Жен

02-Янв-2015 10:51

Танцы


Страна: Россия
Год выпуска: 2014
Жанр: Танцевальное шоу
Продолжительность: 1 х ~02:27:03
Ведущий: Ляйсан Утяшева
Выпущено:
Описание:
Грандиозное шоу, участники которого будут бороться за звание лучшего танцора страны и главный приз - 3 000 000 рублей. Жюри, они же наставники конкурсантов - лучшие российские хореографы Егор Дружинин и Мигель.
Качество видео: WEB-DLRip
Формат: AVI

Видео: XviD, 720x400 (16:9), 25.000 fps, ~1600 Кбит/сек
Аудио: AC-3, 192 Кбит/сек, 2 Канала, 48.0 КГц

Rip by:



Общее
Полное имя : \Tantcy.2014.WEB-DLRip.ExKinoRay\Tantcy.20.vipusk.2014.WEB-DLRip.ExKinoRay.avi
Формат : AVI
Формат/Информация : Audio Video Interleave
Размер файла : 1,18 Гбайт
Продолжительность : 1 ч. 31 м.
Общий поток : 1851 Кбит/сек
Программа кодирования : VirtualDubMod 1.5.10.3 | www.virtualdub-fr.org || (build 2550/release)
Библиотека кодирования : VirtualDubMod build 2550/release

Видео
Идентификатор : 0
Формат : MPEG-4 Visual
Профиль формата : Advanced Simple@L5
Параметр BVOP формата : 1
Параметр QPel формата : Нет
Параметр GMC формата : Без точки перехода
Параметр матрицы формата : Выборочная
Идентификатор кодека : XVID
Идентификатор кодека/Подсказка : XviD
Продолжительность : 1 ч. 31 м.
Битрейт : 1650 Кбит/сек
Ширина : 720 пикселей
Высота : 400 пикселей
Соотношение сторон : 16:9
Частота кадров : 25,000 кадров/сек
Цветовое пространство : YUV
Субдискретизация насыщенности : 4:2:0
Битовая глубина : 8 бит
Тип развёртки : Прогрессивная
Метод сжатия : С потерями
Бит/(Пиксели*Кадры) : 0.229
Размер потока : 1,05 Гбайт (89%)
Библиотека кодирования : XviD 73

Аудио
Идентификатор : 1
Формат : AC-3
Формат/Информация : Audio Coding 3
Расширение режима : CM (complete main)
Параметр Endianness формата : Big
Идентификатор кодека : 2000
Продолжительность : 1 ч. 31 м.
Вид битрейта : Постоянный
Битрейт : 192 Кбит/сек
Каналы : 2 канала
Расположение каналов : Front: L R
Частота : 48,0 КГц
Битовая глубина : 16 бит
Метод сжатия : С потерями
Размер потока : 126 Мбайт (10%)
Выравнивание : Разделение по промежуткам
Продолжительность промежутка : 40 мс. (1,00 видеокадр)
Время предзагрузки промежутка : 500 мс.

picpicpicpicpic
Для увеличения картинки щелкните мышкой по превью



Этот торрент недоступен для скачивания без регистрации, однако доступен по публичной magnet-ссылке (источники с публичных трекеров). Перед использованием ссылки прочтите, пожалуйста Пользовательское соглашение, а также как можно дольше оставайтесь на раздаче! Для того, чтобы скачать сам торрент-файл (который видит больше источников), а также для того, чтобы поблагодарить релизера, вам необходимо зарегистрироваться. Если регистрироваться лень - вы можете также попробовать скачать релиз по нашим партнерским ссылкам ниже. Кроме того, зарегистрированным пользователям не показывается всплывающая реклама при скачивании.

[underverse.su].t47955.torrent
Трекер: Зарегистрирован   [ 02.01.2015 10:51 ]  

Статус: проверено (by Ведьмочка at 02.01.2015 10:55)
Поблагодарили: 1 человек
Тип торрента: публичный - доступные источники с открытых трекеров: 
Размер: 24,19 GB (занимает 5,53 DVDR, для записи нужно 6 болванок DVDR/RW)
 
 
Похожие темы
Форум Тема Автор Торрент Отв. Посл. сооб.
Телепередачи и шоу Танцы (Выпуски: 1-20 из 20) [2014 г., Танцевальное шоу, WEB-DL 720p] Ведьмочка
2 | 2

0 | 2034

3

02.01.2015 10:37


Яндекс.Метрика powered by Sphinx


В Н И М А Н И Е
Сайт не распространяет и не хранит электронные версии произведений, а лишь бесплатно и без коммерческой выгоды (не требуя взамен платы,
SMS и т.д.) предоставляет доступ к создаваемому пользователями каталогу ссылок на торрент-файлы, которые содержат только списки хеш-сумм.
Убедительная просьба с жалобами обращаться напрямую к пользователю, разместившему торрент файл.

Вверх