Loading...
Error

(Blues Rock, Boogie Rock) Pat Travers - Boom Boom (Out Go The Lights) (2007) [FLAC (Tracks+.CUE), Lossless]

Статистика раздачи
Размер:  411 MB   |    Зарегистрирован:  7 лет 8 месяцев   |    Скачан:  2 раза

Полного источника не было: 2 месяца 23 дня

Сидов:  0  |  0 KB/s  ]   Личеров:  0  |  0 KB/s  ]

* - сиды/пиры с внешних источников

   
 
Автор Сообщение

Бишеп Пол:Муж

06-Янв-2015 15:55

Pat Travers - Boom Boom (Out Go The Lights)

Жанр: Blues Rock, Boogie Rock
Год выпуска: 2007
Источник: CD
Производитель диска: Music Video Distributors - MVDA4573
Аудиокодек: FLAC
Тип рипа: Tracks+.CUE
Битрейт аудио: lossless
Продолжительность: 00:53:51


Треклист:
01. Boom Boom (Out Go The Lights)
02. Evil
03. Snortin' Whiskey
04. Crash and Burn
05. Livin' Alone
06. Gimme Back My Bullets
07. Last Child
08. Disappear
09. Waitin' For The Bus
10. Jesus Just Left Chicago
11. Superstitious
12. Politician
13. Lights Out

Код:

X Lossless Decoder version 20131102 (145.0)

XLD extraction logfile from 2014-03-14 17:14:39 -0700

Pat Travers / Boom Boom (Out Go The Lights)

Used drive : HL-DT-ST DVDRW  GX30N (revision RP09)
Media type : Pressed CD

Ripper mode             : XLD Secure Ripper
Disable audio cache     : OK for the drive with a cache less than 1375KiB
Make use of C2 pointers : NO
Read offset correction  : 6
Max retry count         : 50
Gap status              : Analyzed, Appended

TOC of the extracted CD
     Track |   Start  |  Length  | Start sector | End sector
    ---------------------------------------------------------
        1  | 00:00:00 | 03:12:44 |         0    |    14443   
        2  | 03:12:44 | 04:01:30 |     14444    |    32548   
        3  | 07:13:74 | 03:35:37 |     32549    |    48710   
        4  | 10:49:36 | 05:12:32 |     48711    |    72142   
        5  | 16:01:68 | 04:38:50 |     72143    |    93042   
        6  | 20:40:43 | 04:19:65 |     93043    |   112532   
        7  | 25:00:33 | 03:52:62 |    112533    |   129994   
        8  | 28:53:20 | 04:40:37 |    129995    |   151031   
        9  | 33:33:57 | 03:01:36 |    151032    |   164642   
       10  | 36:35:18 | 04:20:68 |    164643    |   184210   
       11  | 40:56:11 | 03:57:18 |    184211    |   202003   
       12  | 44:53:29 | 04:22:33 |    202004    |   221686   
       13  | 49:15:62 | 04:36:70 |    221687    |   242456   

AccurateRip Summary
    Disc not found in AccurateRip DB.

All Tracks
    Album gain               : -9.64 dB
    Peak                     : 0.977814
    Statistics
        Read error                           : 0
        Jitter error (maybe fixed)           : 0
        Retry sector count                   : 0
        Damaged sector count                 : 0

Track 01
    Filename : /XLD/Pat Travers - Boom Boom (Out Go The Lights) (2007) [FLAC]/01 Boom Boom (Out Go The Lights).flac
    Pre-gap length : 00:02:00

    Track gain               : -10.06 dB
    Peak                     : 0.977692
    CRC32 hash (test run)    : 1E430102
    CRC32 hash               : 1E430102
    CRC32 hash (skip zero)   : 4E57DBAE
    AccurateRip v1 signature : A68522A7
    AccurateRip v2 signature : 80044B75
        ->Track not present in AccurateRip database.
    Statistics
        Read error                           : 0
        Jitter error (maybe fixed)           : 0
        Retry sector count                   : 0
        Damaged sector count                 : 0

Track 02
    Filename : /XLD/Pat Travers - Boom Boom (Out Go The Lights) (2007) [FLAC]/02 Evil.flac

    Track gain               : -9.57 dB
    Peak                     : 0.977661
    CRC32 hash (test run)    : 664B82B3
    CRC32 hash               : 664B82B3
    CRC32 hash (skip zero)   : F6BD310E
    AccurateRip v1 signature : 6D709A33
    AccurateRip v2 signature : C4BC1BD9
        ->Track not present in AccurateRip database.
    Statistics
        Read error                           : 0
        Jitter error (maybe fixed)           : 0
        Retry sector count                   : 0
        Damaged sector count                 : 0

Track 03
    Filename : /XLD/Pat Travers - Boom Boom (Out Go The Lights) (2007) [FLAC]/03 Snortin' Whiskey.flac

    Track gain               : -10.14 dB
    Peak                     : 0.977661
    CRC32 hash (test run)    : 7FB561B2
    CRC32 hash               : 7FB561B2
    CRC32 hash (skip zero)   : D5F17F21
    AccurateRip v1 signature : 87DA8F2E
    AccurateRip v2 signature : 1175132A
        ->Track not present in AccurateRip database.
    Statistics
        Read error                           : 0
        Jitter error (maybe fixed)           : 0
        Retry sector count                   : 0
        Damaged sector count                 : 0

Track 04
    Filename : /XLD/Pat Travers - Boom Boom (Out Go The Lights) (2007) [FLAC]/04 Crash and Burn.flac

    Track gain               : -9.70 dB
    Peak                     : 0.977692
    CRC32 hash (test run)    : F86AFAED
    CRC32 hash               : F86AFAED
    CRC32 hash (skip zero)   : 7155566F
    AccurateRip v1 signature : 7EBBE40B
    AccurateRip v2 signature : 3C3A20BA
        ->Track not present in AccurateRip database.
    Statistics
        Read error                           : 0
        Jitter error (maybe fixed)           : 0
        Retry sector count                   : 0
        Damaged sector count                 : 0

Track 05
    Filename : /XLD/Pat Travers - Boom Boom (Out Go The Lights) (2007) [FLAC]/05 Livin' Alone.flac

    Track gain               : -9.32 dB
    Peak                     : 0.977722
    CRC32 hash (test run)    : 719EDE9E
    CRC32 hash               : 719EDE9E
    CRC32 hash (skip zero)   : FB887CFC
    AccurateRip v1 signature : 5A682250
    AccurateRip v2 signature : C05605E6
        ->Track not present in AccurateRip database.
    Statistics
        Read error                           : 0
        Jitter error (maybe fixed)           : 0
        Retry sector count                   : 0
        Damaged sector count                 : 0

Track 06
    Filename : /XLD/Pat Travers - Boom Boom (Out Go The Lights) (2007) [FLAC]/06 Gimme Back My Bullets.flac

    Track gain               : -9.69 dB
    Peak                     : 0.977814
    CRC32 hash (test run)    : 319AE6B6
    CRC32 hash               : 319AE6B6
    CRC32 hash (skip zero)   : 3BBCECD1
    AccurateRip v1 signature : 159288B4
    AccurateRip v2 signature : AF1A1E72
        ->Track not present in AccurateRip database.
    Statistics
        Read error                           : 0
        Jitter error (maybe fixed)           : 0
        Retry sector count                   : 0
        Damaged sector count                 : 0

Track 07
    Filename : /XLD/Pat Travers - Boom Boom (Out Go The Lights) (2007) [FLAC]/07 Last Child.flac

    Track gain               : -9.47 dB
    Peak                     : 0.977722
    CRC32 hash (test run)    : 6A9A5AFD
    CRC32 hash               : 6A9A5AFD
    CRC32 hash (skip zero)   : 50286AD9
    AccurateRip v1 signature : 28F21A6C
    AccurateRip v2 signature : EB42A044
        ->Track not present in AccurateRip database.
    Statistics
        Read error                           : 0
        Jitter error (maybe fixed)           : 0
        Retry sector count                   : 0
        Damaged sector count                 : 0

Track 08
    Filename : /XLD/Pat Travers - Boom Boom (Out Go The Lights) (2007) [FLAC]/08 Disappear.flac

    Track gain               : -9.21 dB
    Peak                     : 0.977692
    CRC32 hash (test run)    : EB6DD591
    CRC32 hash               : EB6DD591
    CRC32 hash (skip zero)   : 8A33B19D
    AccurateRip v1 signature : 61656D33
    AccurateRip v2 signature : 56288384
        ->Track not present in AccurateRip database.
    Statistics
        Read error                           : 0
        Jitter error (maybe fixed)           : 0
        Retry sector count                   : 0
        Damaged sector count                 : 0

Track 09
    Filename : /XLD/Pat Travers - Boom Boom (Out Go The Lights) (2007) [FLAC]/09 Waitin' For The Bus.flac

    Track gain               : -9.08 dB
    Peak                     : 0.977692
    CRC32 hash (test run)    : F90F817C
    CRC32 hash               : F90F817C
    CRC32 hash (skip zero)   : 18B9BF85
    AccurateRip v1 signature : E887B78B
    AccurateRip v2 signature : 2AB9CA3C
        ->Track not present in AccurateRip database.
    Statistics
        Read error                           : 0
        Jitter error (maybe fixed)           : 0
        Retry sector count                   : 0
        Damaged sector count                 : 0

Track 10
    Filename : /XLD/Pat Travers - Boom Boom (Out Go The Lights) (2007) [FLAC]/10 Jesus Just Left Chicago.flac

    Track gain               : -9.42 dB
    Peak                     : 0.977722
    CRC32 hash (test run)    : 3BD94C02
    CRC32 hash               : 3BD94C02
    CRC32 hash (skip zero)   : 25B38209
    AccurateRip v1 signature : EFACCEDF
    AccurateRip v2 signature : 3EB5DD25
        ->Track not present in AccurateRip database.
    Statistics
        Read error                           : 0
        Jitter error (maybe fixed)           : 0
        Retry sector count                   : 0
        Damaged sector count                 : 0

Track 11
    Filename : /XLD/Pat Travers - Boom Boom (Out Go The Lights) (2007) [FLAC]/11 Superstitious.flac

    Track gain               : -9.26 dB
    Peak                     : 0.977722
    CRC32 hash (test run)    : C3233ECB
    CRC32 hash               : C3233ECB
    CRC32 hash (skip zero)   : 4F34BE92
    AccurateRip v1 signature : 37C1CDA3
    AccurateRip v2 signature : 5963D256
        ->Track not present in AccurateRip database.
    Statistics
        Read error                           : 0
        Jitter error (maybe fixed)           : 0
        Retry sector count                   : 0
        Damaged sector count                 : 0

Track 12
    Filename : /XLD/Pat Travers - Boom Boom (Out Go The Lights) (2007) [FLAC]/12 Politician.flac

    Track gain               : -9.11 dB
    Peak                     : 0.977692
    CRC32 hash (test run)    : 0E5A3D7F
    CRC32 hash               : 0E5A3D7F
    CRC32 hash (skip zero)   : 5C5D1F7A
    AccurateRip v1 signature : 4C33B0FF
    AccurateRip v2 signature : 83A581FC
        ->Track not present in AccurateRip database.
    Statistics
        Read error                           : 0
        Jitter error (maybe fixed)           : 0
        Retry sector count                   : 0
        Damaged sector count                 : 0

Track 13
    Filename : /XLD/Pat Travers - Boom Boom (Out Go The Lights) (2007) [FLAC]/13 Lights Out.flac

    Track gain               : -10.11 dB
    Peak                     : 0.977783
    CRC32 hash (test run)    : 68AF84F6
    CRC32 hash               : 68AF84F6
    CRC32 hash (skip zero)   : B4D33221
    AccurateRip v1 signature : 1BFD676C
    AccurateRip v2 signature : 6D41BC5B
        ->Track not present in AccurateRip database.
    Statistics
        Read error                           : 0
        Jitter error (maybe fixed)           : 0
        Retry sector count                   : 0
        Damaged sector count                 : 0

No errors occurred

End of status report

-----BEGIN XLD SIGNATURE-----
FaEzoogAMB.UcxsXdU5H1idNzb0xiiB4yYZZz2mmHVURiD97K00v6hXABZ1FrDbXJouPcG9ZIjx4HnfwMq1LbSjAIp.Nvyqc8gtfSpu
-----END XLD SIGNATURE-----

Код:

TITLE "Boom Boom (Out Go The Lights)"
PERFORMER "Pat Travers"
REM GENRE "Rock"
REM DATE "2007"
REM DISCID B60CA00D
REM REPLAYGAIN_ALBUM_GAIN -9.64 dB
REM REPLAYGAIN_ALBUM_PEAK 0.977814
FILE "01 Boom Boom (Out Go The Lights).flac" WAVE
  TRACK 01 AUDIO
    TITLE "Boom Boom (Out Go The Lights)"
    REM REPLAYGAIN_TRACK_GAIN -10.06 dB
    REM REPLAYGAIN_TRACK_PEAK 0.977692
    INDEX 01 00:00:00
FILE "02 Evil.flac" WAVE
  TRACK 02 AUDIO
    TITLE "Evil"
    REM REPLAYGAIN_TRACK_GAIN -9.57 dB
    REM REPLAYGAIN_TRACK_PEAK 0.977661
    INDEX 01 00:00:00
FILE "03 Snortin' Whiskey.flac" WAVE
  TRACK 03 AUDIO
    TITLE "Snortin' Whiskey"
    REM REPLAYGAIN_TRACK_GAIN -10.14 dB
    REM REPLAYGAIN_TRACK_PEAK 0.977661
    INDEX 01 00:00:00
FILE "04 Crash and Burn.flac" WAVE
  TRACK 04 AUDIO
    TITLE "Crash and Burn"
    REM REPLAYGAIN_TRACK_GAIN -9.70 dB
    REM REPLAYGAIN_TRACK_PEAK 0.977692
    INDEX 01 00:00:00
FILE "05 Livin' Alone.flac" WAVE
  TRACK 05 AUDIO
    TITLE "Livin' Alone"
    REM REPLAYGAIN_TRACK_GAIN -9.32 dB
    REM REPLAYGAIN_TRACK_PEAK 0.977722
    INDEX 01 00:00:00
FILE "06 Gimme Back My Bullets.flac" WAVE
  TRACK 06 AUDIO
    TITLE "Gimme Back My Bullets"
    REM REPLAYGAIN_TRACK_GAIN -9.69 dB
    REM REPLAYGAIN_TRACK_PEAK 0.977814
    INDEX 01 00:00:00
FILE "07 Last Child.flac" WAVE
  TRACK 07 AUDIO
    TITLE "Last Child"
    REM REPLAYGAIN_TRACK_GAIN -9.47 dB
    REM REPLAYGAIN_TRACK_PEAK 0.977722
    INDEX 01 00:00:00
FILE "08 Disappear.flac" WAVE
  TRACK 08 AUDIO
    TITLE "Disappear"
    REM REPLAYGAIN_TRACK_GAIN -9.21 dB
    REM REPLAYGAIN_TRACK_PEAK 0.977692
    INDEX 01 00:00:00
FILE "09 Waitin' For The Bus.flac" WAVE
  TRACK 09 AUDIO
    TITLE "Waitin' For The Bus"
    REM REPLAYGAIN_TRACK_GAIN -9.08 dB
    REM REPLAYGAIN_TRACK_PEAK 0.977692
    INDEX 01 00:00:00
FILE "10 Jesus Just Left Chicago.flac" WAVE
  TRACK 10 AUDIO
    TITLE "Jesus Just Left Chicago"
    REM REPLAYGAIN_TRACK_GAIN -9.42 dB
    REM REPLAYGAIN_TRACK_PEAK 0.977722
    INDEX 01 00:00:00
FILE "11 Superstitious.flac" WAVE
  TRACK 11 AUDIO
    TITLE "Superstitious"
    REM REPLAYGAIN_TRACK_GAIN -9.26 dB
    REM REPLAYGAIN_TRACK_PEAK 0.977722
    INDEX 01 00:00:00
FILE "12 Politician.flac" WAVE
  TRACK 12 AUDIO
    TITLE "Politician"
    REM REPLAYGAIN_TRACK_GAIN -9.11 dB
    REM REPLAYGAIN_TRACK_PEAK 0.977692
    INDEX 01 00:00:00
FILE "13 Lights Out.flac" WAVE
  TRACK 13 AUDIO
    TITLE "Lights Out"
    REM REPLAYGAIN_TRACK_GAIN -10.11 dB
    REM REPLAYGAIN_TRACK_PEAK 0.977783
    INDEX 01 00:00:00
-----------------------

DON'T MODIFY THIS FILE

-----------------------

PERFORMER: auCDtect Task Manager, ver. 1.5.1RC4 build 1.5.1.5
Copyright (c) 2008-2010 y-soft. All rights reserved
http://y-soft.org

ANALYZER: auCDtect: CD records authenticity detector, version 0.8.2
Copyright (c) 2004 Oleg Berngardt. All rights reserved.
Copyright (c) 2004 Alexander Djourik. All rights reserved.

FILE: 13 Lights Out.flac
Size: 37758436 Hash: 739B6A144CA0C1583D2F5C18DE698E89 Accuracy: -m0
Conclusion: CDDA 100%
Signature: 39F2F9812A3130826E150E81CE684CBD0DB66E99
FILE: 12 Politician.flac
Size: 34964040 Hash: 348A9B550BF91672D05B4B8985F596C5 Accuracy: -m0
Conclusion: CDDA 100%
Signature: 757804B54A38E3AE347AAD9EA0839200E011FC2B
FILE: 11 Superstitious.flac
Size: 32258128 Hash: BB08B6740EB3C3C34B3DDDABDDEEF299 Accuracy: -m0
Conclusion: CDDA 100%
Signature: BCEFEAE46311DDFAA9CDB16BF22535AB2BA601C8
FILE: 10 Jesus Just Left Chicago.flac
Size: 33315855 Hash: 98B7B6EE2980EAF1CB9D986FB8F11C4D Accuracy: -m0
Conclusion: CDDA 100%
Signature: 40701F07A652C1A6C8D09DC04C35531244E63F9C
FILE: 09 Waitin' For The Bus.flac
Size: 23467949 Hash: 8102C629ED5E5B948BB4C3CE361893A9 Accuracy: -m0
Conclusion: CDDA 100%
Signature: 970134EA2D24718419287FEAEB50AFA6AA5D123D
FILE: 08 Disappear.flac
Size: 37175503 Hash: F8B2925A3104F77D2E67A6DD8526968D Accuracy: -m0
Conclusion: CDDA 100%
Signature: C8DC9781685EB9B70BA352AEADFAF0CAAEF0BAA0
FILE: 07 Last Child.flac
Size: 31256321 Hash: 5E640446535A7FC4FFF323DC7B2CA54E Accuracy: -m0
Conclusion: CDDA 100%
Signature: AE8A0AAE2F76FE7F236F0C43ECF78E96F8C71FE1
FILE: 06 Gimme Back My Bullets.flac
Size: 33851650 Hash: 44102A28F2EB9A8D7C108EEF424A31D5 Accuracy: -m0
Conclusion: CDDA 100%
Signature: 61056C38EBC3071829FC8A4B963F4A13E6C1EB02
FILE: 05 Livin' Alone.flac
Size: 37491059 Hash: B77A6A0B590360B27A38576A691E324C Accuracy: -m0
Conclusion: CDDA 100%
Signature: F887404EBFD13AE4DB6B30F08AB65060A211DE7F
FILE: 04 Crash and Burn.flac
Size: 41278271 Hash: A4EE3D18577B559FCDCF2D11901C80A9 Accuracy: -m0
Conclusion: CDDA 100%
Signature: 7F58D5C6A6B5D2A0C1BF02F43CD196EC3EE271AC
FILE: 03 Snortin' Whiskey.flac
Size: 29796165 Hash: 64FF2DC54C4B908918AEEA314F5CBBB6 Accuracy: -m0
Conclusion: CDDA 100%
Signature: EB05F94CAA6F474D750964B46BFAEB634D131548
FILE: 02 Evil.flac
Size: 33023449 Hash: 54CB285B772DDFBC529490CB2651F484 Accuracy: -m0
Conclusion: CDDA 100%
Signature: 1A59E45634C4AD4E61203940BD8F8E453B9A279A
FILE: 01 Boom Boom (Out Go The Lights).flac
Size: 25233887 Hash: F57D6C7F6BDEAB9633AFD735D296A2C4 Accuracy: -m0
Conclusion: CDDA 100%
Signature: 7F165599F17093B4C5108AD9E6EB6CE352984519

Этот торрент недоступен для скачивания без регистрации, однако доступен по публичной magnet-ссылке (источники с публичных трекеров). Перед использованием ссылки прочтите, пожалуйста Пользовательское соглашение, а также как можно дольше оставайтесь на раздаче! Для того, чтобы скачать сам торрент-файл (который видит больше источников), а также для того, чтобы поблагодарить релизера, вам необходимо зарегистрироваться. Если регистрироваться лень - вы можете также попробовать скачать релиз по нашим партнерским ссылкам ниже. Кроме того, зарегистрированным пользователям не показывается всплывающая реклама при скачивании.

[underverse.su].t48065.torrent
Трекер: Зарегистрирован   [ 06.01.2015 15:55 ]  
Статус: проверено (by Бишеп at 06.01.2015 15:55)
Поблагодарили: пока никто не поблагодарил...
Тип торрента: публичный - доступные источники с открытых трекеров: 
Размер: 411 MB (занимает 0.09 DVDR, для записи нужно 1 болванка DVDR/RW)
 
 

Яндекс.Метрика powered by Sphinx


В Н И М А Н И Е
Сайт не распространяет и не хранит электронные версии произведений, а лишь бесплатно и без коммерческой выгоды (не требуя взамен платы,
SMS и т.д.) предоставляет доступ к создаваемому пользователями каталогу ссылок на торрент-файлы, которые содержат только списки хеш-сумм.
Убедительная просьба с жалобами обращаться напрямую к пользователю, разместившему торрент файл.

Вверх