Loading...
Error

(Retro) Марк Бернес - Grand Collection (2005) [FLAC (Image+.CUE), Lossless]

Статистика раздачи
Размер:  370 MB   |    Зарегистрирован:  5 лет 9 месяцев   |    Скачан:  31 раз

Полного источника не было: 2 месяца 2 дня

Сидов:  0  |  0 KB/s  ]   Личеров:  0  |  0 KB/s  ]

* - сиды/пиры с внешних источников

   
 
Автор Сообщение

Бишеп Пол:Муж

22-Май-2015 14:07

Марк Бернес - Grand Collection

Жанр: Retro
Год выпуска: 2005
Источник: CD
Производитель диска: Квадро диск, Moroz, Каприz - GCR 189
Аудиокодек: FLAC
Тип рипа: Image+.CUE
Битрейт аудио: lossless
Продолжительность: 01:15:25


Треклист:
01. С чего начинается Родина
02. Три года ты мне снилась
03. Песня Рощина
04. Вечерняя песня
05. Огромное небо
06. Где же ты, друг
07. Течет река Волга
08. Спят курганы темные
09. Я люблю тебя, жизнь
10. Москвичи
11. Мужской разговор
12. Песня фронтового шофера
13. Темная ночь
14. Полевая почта
15. Любимый город
16. Служи солдат
17. Журавли
18. Солдаты
19. Новобранцы
20. Хотят ли русские войны
21. Все еще впереди
22. Я улыбаюсь тебе
23. Песня посвящается моя
24. Шаланды
25. Тучи над городом встали
26. Я работаю волшебником

Код:

Exact Audio Copy V1.0 beta 3 from 29. August 2011

EAC extraction logfile from 6. April 2012, 20:39

Марк Бернес / Grand Collection

Used drive  : hp      DVDRAM GT30L   Adapter: 0  ID: 1

Read mode               : Secure
Utilize accurate stream : Yes
Defeat audio cache      : Yes
Make use of C2 pointers : No

Read offset correction                      : 103
Overread into Lead-In and Lead-Out          : No
Fill up missing offset samples with silence : Yes
Delete leading and trailing silent blocks   : No
Null samples used in CRC calculations       : Yes
Used interface                              : Installed external ASPI interface

Used output format : Internal WAV Routines
Sample format      : 44.100 Hz; 16 Bit; Stereo

TOC of the extracted CD

     Track |   Start  |  Length  | Start sector | End sector
    ---------------------------------------------------------
        1  |  0:00.00 |  2:30.49 |         0    |    11298   
        2  |  2:30.49 |  3:12.11 |     11299    |    25709   
        3  |  5:42.60 |  2:37.11 |     25710    |    37495   
        4  |  8:19.71 |  3:14.14 |     37496    |    52059   
        5  | 11:34.10 |  2:56.63 |     52060    |    65322   
        6  | 14:30.73 |  3:04.49 |     65323    |    79171   
        7  | 17:35.47 |  4:15.05 |     79172    |    98301   
        8  | 21:50.52 |  3:17.53 |     98302    |   113129   
        9  | 25:08.30 |  2:30.10 |    113130    |   124389   
       10  | 27:38.40 |  2:20.58 |    124390    |   134947   
       11  | 29:59.23 |  2:51.55 |    134948    |   147827   
       12  | 32:51.03 |  2:01.01 |    147828    |   156903   
       13  | 34:52.04 |  3:21.10 |    156904    |   171988   
       14  | 38:13.14 |  2:53.37 |    171989    |   185000   
       15  | 41:06.51 |  2:28.72 |    185001    |   196172   
       16  | 43:35.48 |  2:39.67 |    196173    |   208164   
       17  | 46:15.40 |  4:13.17 |    208165    |   227156   
       18  | 50:28.57 |  2:55.48 |    227157    |   240329   
       19  | 53:24.30 |  2:26.18 |    240330    |   251297   
       20  | 55:50.48 |  2:11.52 |    251298    |   261174   
       21  | 58:02.25 |  3:16.38 |    261175    |   275912   
       22  | 61:18.63 |  3:07.65 |    275913    |   290002   
       23  | 64:26.53 |  2:40.62 |    290003    |   302064   
       24  | 67:07.40 |  3:03.58 |    302065    |   315847   
       25  | 70:11.23 |  2:01.41 |    315848    |   324963   
       26  | 72:12.64 |  3:11.57 |    324964    |   339345   

Range status and errors

Selected range

     Filename D:\Марк Бернес - Grand Collection\Марк Бернес - Grand Collection.wav

     Peak level 56.2 %
     Extraction speed 1.5 X
     Range quality 100.0 %
     Test CRC 075CCB97
     Copy CRC 075CCB97
     Copy OK

No errors occurred

 
AccurateRip summary
 
Track  1  not present in database
Track  2  not present in database
Track  3  not present in database
Track  4  not present in database
Track  5  not present in database
Track  6  not present in database
Track  7  not present in database
Track  8  not present in database
Track  9  not present in database
Track 10  not present in database
Track 11  not present in database
Track 12  not present in database
Track 13  not present in database
Track 14  not present in database
Track 15  not present in database
Track 16  not present in database
Track 17  not present in database
Track 18  not present in database
Track 19  not present in database
Track 20  not present in database
Track 21  not present in database
Track 22  not present in database
Track 23  not present in database
Track 24  not present in database
Track 25  not present in database
Track 26  not present in database
 
None of the tracks are present in the AccurateRip database

End of status report

Код:

REM GENRE Ballad
REM DATE 2005
REM DISCID 6611AC1A
REM COMMENT "ExactAudioCopy v1.0b3"
PERFORMER "Марк Бернес"
TITLE "Grand Collection"
FILE "Марк Бернес - Grand Collection.flac" WAVE
  TRACK 01 AUDIO
    TITLE "С чего начинается Родина"
    PERFORMER "Марк Бернес"
    INDEX 01 00:00:00
  TRACK 02 AUDIO
    TITLE "Три года ты мне снилась"
    PERFORMER "Марк Бернес"
    INDEX 00 02:28:49
    INDEX 01 02:30:49
  TRACK 03 AUDIO
    TITLE "Песня Рощина"
    PERFORMER "Марк Бернес"
    INDEX 00 05:40:60
    INDEX 01 05:42:60
  TRACK 04 AUDIO
    TITLE "Вечерняя песня"
    PERFORMER "Марк Бернес"
    INDEX 00 08:17:71
    INDEX 01 08:19:71
  TRACK 05 AUDIO
    TITLE "Огромное небо"
    PERFORMER "Марк Бернес"
    INDEX 00 11:32:10
    INDEX 01 11:34:10
  TRACK 06 AUDIO
    TITLE "Где же ты, друг"
    PERFORMER "Марк Бернес"
    INDEX 00 14:28:72
    INDEX 01 14:30:73
  TRACK 07 AUDIO
    TITLE "Течет река Волга"
    PERFORMER "Марк Бернес"
    INDEX 00 17:33:46
    INDEX 01 17:35:47
  TRACK 08 AUDIO
    TITLE "Спят курганы темные"
    PERFORMER "Марк Бернес"
    INDEX 00 21:48:52
    INDEX 01 21:50:52
  TRACK 09 AUDIO
    TITLE "Я люблю тебя, жизнь"
    PERFORMER "Марк Бернес"
    INDEX 00 25:06:30
    INDEX 01 25:08:30
  TRACK 10 AUDIO
    TITLE "Москвичи"
    PERFORMER "Марк Бернес"
    INDEX 00 27:36:39
    INDEX 01 27:38:40
  TRACK 11 AUDIO
    TITLE "Мужской разговор"
    PERFORMER "Марк Бернес"
    INDEX 00 29:57:23
    INDEX 01 29:59:23
  TRACK 12 AUDIO
    TITLE "Песня фронтового шофера"
    PERFORMER "Марк Бернес"
    INDEX 00 32:49:02
    INDEX 01 32:51:03
  TRACK 13 AUDIO
    TITLE "Темная ночь"
    PERFORMER "Марк Бернес"
    INDEX 00 34:50:04
    INDEX 01 34:52:04
  TRACK 14 AUDIO
    TITLE "Полевая почта"
    PERFORMER "Марк Бернес"
    INDEX 00 38:11:14
    INDEX 01 38:13:14
  TRACK 15 AUDIO
    TITLE "Любимый город"
    PERFORMER "Марк Бернес"
    INDEX 00 41:05:20
    INDEX 01 41:06:51
  TRACK 16 AUDIO
    TITLE "Служи солдат"
    PERFORMER "Марк Бернес"
    INDEX 01 43:35:48
  TRACK 17 AUDIO
    TITLE "Журавли"
    PERFORMER "Марк Бернес"
    INDEX 01 46:15:40
  TRACK 18 AUDIO
    TITLE "Солдаты"
    PERFORMER "Марк Бернес"
    INDEX 01 50:28:57
  TRACK 19 AUDIO
    TITLE "Новобранцы"
    PERFORMER "Марк Бернес"
    INDEX 01 53:24:30
  TRACK 20 AUDIO
    TITLE "Хотят ли русские войны"
    PERFORMER "Марк Бернес"
    INDEX 01 55:50:48
  TRACK 21 AUDIO
    TITLE "Все еще впереди"
    PERFORMER "Марк Бернес"
    INDEX 01 58:02:25
  TRACK 22 AUDIO
    TITLE "Я улыбаюсь тебе"
    PERFORMER "Марк Бернес"
    INDEX 01 61:18:63
  TRACK 23 AUDIO
    TITLE "Песня посвящается моя"
    PERFORMER "Марк Бернес"
    INDEX 01 64:26:53
  TRACK 24 AUDIO
    TITLE "Шаланды"
    PERFORMER "Марк Бернес"
    INDEX 01 67:07:40
  TRACK 25 AUDIO
    TITLE "Тучи над городом встали"
    PERFORMER "Марк Бернес"
    INDEX 01 70:11:23
  TRACK 26 AUDIO
    TITLE "Я работаю волшебником"
    PERFORMER "Марк Бернес"
    INDEX 01 72:12:64

Код:

-----------------------

DON'T MODIFY THIS FILE

-----------------------

PERFORMER: auCDtect Task Manager, ver. 1.6.0 RC1 build 1.6.0.1
Copyright (c) 2008-2010 y-soft. All rights reserved
http://y-soft.org

ANALYZER: auCDtect: CD records authenticity detector, version 0.8.2
Copyright (c) 2004 Oleg Berngardt. All rights reserved.
Copyright (c) 2004 Alexander Djourik. All rights reserved.

FILE: Марк Бернес - Grand Collection.flac
  Size: 355639286 Hash: 4C05420798050F88BAE22340202719F1 Accuracy: -m0
  Conclusion: CDDA 76%
  Signature: 2C4C56EB69527F5DEB4FAAA2A23AF1D16081D6BA



Этот торрент недоступен для скачивания без регистрации, однако доступен по публичной magnet-ссылке (источники с публичных трекеров). Перед использованием ссылки прочтите, пожалуйста Пользовательское соглашение, а также как можно дольше оставайтесь на раздаче! Для того, чтобы скачать сам торрент-файл (который видит больше источников), а также для того, чтобы поблагодарить релизера, вам необходимо зарегистрироваться. Если регистрироваться лень - вы можете также попробовать скачать релиз по нашим партнерским ссылкам ниже. Кроме того, зарегистрированным пользователям не показывается всплывающая реклама при скачивании.

[underverse.su].t54778.torrent
Трекер: Зарегистрирован   [ 22.05.2015 14:07 ]  

Статус: проверено (by Бишеп at 22.05.2015 14:08)
Поблагодарили: 4 человека
Тип торрента: публичный - доступные источники с открытых трекеров: 
Размер: 370 MB (занимает 0,08 DVDR, для записи нужно 1 болванка DVDR/RW)
 
 
Похожие темы
Форум Тема Автор Торрент Отв. Посл. сооб.
Авторские песни, Барды (Lossless) (Retro) Манюня и Ураган (Марина Анисимова и Сергей Гоппен) - И всё сбылось... и не сбылось? (2003) [FLAC (Image+.CUE), Lossless] Inspektor_49
0 | 0

0 | 406

4

01.11.2019 10:54

Отечественная Ретро Музыка (Lossless) (Retro) Майя Кристалинская - Grand Collection (2004) [FLAC (Tracks+.CUE), lossless] garry
7 | 0

0 | 3801

22

06.11.2011 22:31

Архив (ретро, шансон, военная музыка, барды) (Retro) Марк Бернес - Неизданные и раритетные песни (2006) [MP3, 256 kbps] Odin
0 | 0

1 | 1686

0

17.02.2011 14:46


Яндекс.Метрика powered by Sphinx


В Н И М А Н И Е
Сайт не распространяет и не хранит электронные версии произведений, а лишь бесплатно и без коммерческой выгоды (не требуя взамен платы,
SMS и т.д.) предоставляет доступ к создаваемому пользователями каталогу ссылок на торрент-файлы, которые содержат только списки хеш-сумм.
Убедительная просьба с жалобами обращаться напрямую к пользователю, разместившему торрент файл.

Вверх