Loading...
Error

(Retro) Леонид Утесов - С одесского кичмана (2001) [FLAC (Image+.CUE), Lossless]

Статистика раздачи
Размер:  185 MB   |    Зарегистрирован:  5 лет 9 месяцев   |    Скачан:  37 раз

Полного источника не было: 9 дней

Сидов:  0  |  0 KB/s  ]   Личеров:  0  |  0 KB/s  ]

* - сиды/пиры с внешних источников

   
 
Автор Сообщение

Бишеп Пол:Муж

22-Май-2015 14:29

Леонид Утесов - С одесского кичмана

Жанр: Retro
Год выпуска: 2001
Источник: CD
Производитель диска: Bomba Music BoMB 05-16
Аудиокодек: FLAC
Тип рипа: Image+.CUE
Битрейт аудио: lossless
Продолжительность: 01:02:28


Треклист:
01. С одесского кичмана
02. Контрабандисты
03. Гоп со Смыком
04. Синеглазая морячка
05. Бублички
06. Собачий вальс
07. Морской блюз
08. Где б ни скитался я
09. Лимончики
10. Му-му
11. Раскинулось море широко
12. У самовара
13. У окошка
14. Бубенцы звенят, играют
15. Сулико
16. Конго, блюз
17. Танго "Сильва"
18. Фокс "Сильва"
19. Пока

Код:

Exact Audio Copy V0.99 prebeta 5 from 4. May 2009

Отчёт EAC об извлечении, выполненном 4. марта 2012, 17:06

Леонид Утесов / С Одесского кичмана...

Дисковод: PLEXTOR DVDR   PX-810SA   Adapter: 2  ID: 1

Режим чтения                 : Достоверность
Использование точного потока : Да
Отключение кэша аудио        : Да
Использование указателей C2  : Нет

Коррекция смещения при чтении                     : 48
Способность читать области Lead-in и Lead-out     : Нет
Заполнение пропущенных сэмплов тишиной            : Да
Удаление блоков с тишиной в начале и конце        : Нет
При вычислениях CRC использовались нулевые сэмплы : Да
Интерфейс                                         : Встроенный Win32-интерфейс для Win NT/2000

Выходной формат : Внутренние WAV-операции
Формат сэмплов  : 44.100 Гц; 16 бит; стерео

TOC извлечённого CD

     Трек |   Старт  | Длительность | Начальный сектор | Конечный сектор
    ---------------------------------------------------------------------
       1  |  0:00.00 |    2:43.37   |           0      |      12261     
       2  |  2:43.37 |    3:14.60   |       12262      |      26871     
       3  |  5:58.22 |    3:03.18   |       26872      |      40614     
       4  |  9:01.40 |    3:03.69   |       40615      |      54408     
       5  | 12:05.34 |    1:55.15   |       54409      |      63048     
       6  | 14:00.49 |    2:16.53   |       63049      |      73301     
       7  | 16:17.27 |    4:56.62   |       73302      |      95563     
       8  | 21:14.14 |    3:18.49   |       95564      |     110462     
       9  | 24:32.63 |    3:44.61   |      110463      |     127323     
      10  | 28:17.49 |    2:28.07   |      127324      |     138430     
      11  | 30:45.56 |    3:09.26   |      138431      |     152631     
      12  | 33:55.07 |    4:09.15   |      152632      |     171321     
      13  | 38:04.22 |    4:43.29   |      171322      |     192575     
      14  | 42:47.51 |    3:13.67   |      192576      |     207117     
      15  | 46:01.43 |    3:22.35   |      207118      |     222302     
      16  | 49:24.03 |    4:36.05   |      222303      |     243007     
      17  | 54:00.08 |    2:57.34   |      243008      |     256316     
      18  | 56:57.42 |    2:50.18   |      256317      |     269084     
      19  | 59:47.60 |    3:01.55   |      269085      |     282714     

Характеристики диапазона извлечения и сообщения об ошибках

Выбранный диапазон

     Имя файла F:\МУЗЫКА МОИ ОЦИФРОВКИ CD\Леонид Утесов - С Одесского кичмана....wav

     Пиковый уровень 100.0 %
     Качество диапазона 100.0 %
     CRC теста 5183CFBE
     CRC копии 5183CFBE
     Копирование... OK

Ошибок не произошло

 
AccurateRip: сводка
 
Трек  1  нет в базе данных
Трек  2  нет в базе данных
Трек  3  нет в базе данных
Трек  4  нет в базе данных
Трек  5  нет в базе данных
Трек  6  нет в базе данных
Трек  7  нет в базе данных
Трек  8  нет в базе данных
Трек  9  нет в базе данных
Трек 10  нет в базе данных
Трек 11  нет в базе данных
Трек 12  нет в базе данных
Трек 13  нет в базе данных
Трек 14  нет в базе данных
Трек 15  нет в базе данных
Трек 16  нет в базе данных
Трек 17  нет в базе данных
Трек 18  нет в базе данных
Трек 19  нет в базе данных
 
Ни одного трека нет в базе AccurateRip

Конец отчёта

Код:

REM GENRE Chanson
REM DATE 2001
REM DISCID 3A0EB913
REM COMMENT "ExactAudioCopy v0.99pb5"
PERFORMER "Леонид Утесов"
TITLE "С Одесского кичмана..."
FILE "Леонид Утесов - С Одесского кичмана....flac" WAVE
  TRACK 01 AUDIO
    TITLE "С одесского кичмана"
    PERFORMER "Леонид Утесов"
    INDEX 01 00:00:00
  TRACK 02 AUDIO
    TITLE "Контрабандисты"
    PERFORMER "Леонид Утесов"
    INDEX 00 02:41:38
    INDEX 01 02:43:37
  TRACK 03 AUDIO
    TITLE "Гоп со Смыком"
    PERFORMER "Леонид Утесов"
    INDEX 00 05:56:23
    INDEX 01 05:58:22
  TRACK 04 AUDIO
    TITLE "Синеглазая морячка"
    PERFORMER "Леонид Утесов"
    INDEX 00 08:59:41
    INDEX 01 09:01:40
  TRACK 05 AUDIO
    TITLE "Бублички"
    PERFORMER "Леонид Утесов"
    INDEX 00 12:03:35
    INDEX 01 12:05:34
  TRACK 06 AUDIO
    TITLE "Собачий вальс"
    PERFORMER "Леонид Утесов"
    INDEX 00 13:58:50
    INDEX 01 14:00:49
  TRACK 07 AUDIO
    TITLE "Морской блюз"
    PERFORMER "Леонид Утесов"
    INDEX 00 16:15:28
    INDEX 01 16:17:27
  TRACK 08 AUDIO
    TITLE "Где б ни скитался я"
    PERFORMER "Леонид Утесов"
    INDEX 00 21:12:15
    INDEX 01 21:14:14
  TRACK 09 AUDIO
    TITLE "Лимончики"
    PERFORMER "Леонид Утесов"
    INDEX 00 24:30:64
    INDEX 01 24:32:63
  TRACK 10 AUDIO
    TITLE "Му-му"
    PERFORMER "Леонид Утесов"
    INDEX 00 28:15:50
    INDEX 01 28:17:49
  TRACK 11 AUDIO
    TITLE "Раскинулось море широко"
    PERFORMER "Леонид Утесов"
    INDEX 00 30:43:57
    INDEX 01 30:45:56
  TRACK 12 AUDIO
    TITLE "У самовара"
    PERFORMER "Леонид Утесов"
    INDEX 00 33:53:08
    INDEX 01 33:55:07
  TRACK 13 AUDIO
    TITLE "У окошка"
    PERFORMER "Леонид Утесов"
    INDEX 00 38:02:23
    INDEX 01 38:04:22
  TRACK 14 AUDIO
    TITLE "Бубенцы звенят, играют"
    PERFORMER "Леонид Утесов"
    INDEX 00 42:45:52
    INDEX 01 42:47:51
  TRACK 15 AUDIO
    TITLE "Сулико"
    PERFORMER "Леонид Утесов"
    INDEX 00 45:59:44
    INDEX 01 46:01:43
  TRACK 16 AUDIO
    TITLE "Конго, блюз"
    PERFORMER "Леонид Утесов"
    INDEX 00 49:22:04
    INDEX 01 49:24:03
  TRACK 17 AUDIO
    TITLE "Танго 'Сильва'"
    PERFORMER "Леонид Утесов"
    INDEX 00 53:58:09
    INDEX 01 54:00:08
  TRACK 18 AUDIO
    TITLE "Фокс 'Сильва'"
    PERFORMER "Леонид Утесов"
    INDEX 00 56:55:43
    INDEX 01 56:57:42
  TRACK 19 AUDIO
    TITLE "Пока"
    PERFORMER "Леонид Утесов"
    INDEX 00 59:45:61
    INDEX 01 59:47:60

Код:

-----------------------

DON'T MODIFY THIS FILE

-----------------------

PERFORMER: auCDtect Task Manager, ver. 1.6.0 RC1 build 1.6.0.1
Copyright (c) 2008-2010 y-soft. All rights reserved
http://y-soft.org

ANALYZER: auCDtect: CD records authenticity detector, version 0.8.2
Copyright (c) 2004 Oleg Berngardt. All rights reserved.
Copyright (c) 2004 Alexander Djourik. All rights reserved.

FILE: Леонид Утесов - С Одесского кичмана....flac
  Size: 172806591 Hash: 469C9E8218F59DA9F47CE8730BFC6298 Accuracy: -m0
  Conclusion: CDDA 94%
  Signature: B51F6DFE2B5CC7284204297756465ED584E54043

Этот торрент недоступен для скачивания без регистрации, однако доступен по публичной magnet-ссылке (источники с публичных трекеров). Перед использованием ссылки прочтите, пожалуйста Пользовательское соглашение, а также как можно дольше оставайтесь на раздаче! Для того, чтобы скачать сам торрент-файл (который видит больше источников), а также для того, чтобы поблагодарить релизера, вам необходимо зарегистрироваться. Если регистрироваться лень - вы можете также попробовать скачать релиз по нашим партнерским ссылкам ниже. Кроме того, зарегистрированным пользователям не показывается всплывающая реклама при скачивании.

[underverse.su].t54779.torrent
Трекер: Зарегистрирован   [ 22.05.2015 14:29 ]  

Статус: проверено (by Бишеп at 22.05.2015 14:30)
Поблагодарили: 2 человека
Тип торрента: публичный - доступные источники с открытых трекеров: 
Размер: 185 MB (занимает 0,04 DVDR, для записи нужно 1 болванка DVDR/RW)
 
 
Похожие темы
Форум Тема Автор Торрент Отв. Посл. сооб.
Отечественная Ретро Музыка (Lossless) (Retro) Леонид Утесов - Grand Collection (2004) [FLAC (Tracks+.CUE), lossless] garry
0 | 0

1 | 2589

35

22.06.2014 21:25

Отечественная Ретро Музыка (Lossless) (Retro) Леонид Утесов - Имена на все времена (2007) [FLAC (Image+.CUE), Lossless] Бишеп
0 | 0

1 | 1773

25

22.06.2014 21:24


Яндекс.Метрика powered by Sphinx


В Н И М А Н И Е
Сайт не распространяет и не хранит электронные версии произведений, а лишь бесплатно и без коммерческой выгоды (не требуя взамен платы,
SMS и т.д.) предоставляет доступ к создаваемому пользователями каталогу ссылок на торрент-файлы, которые содержат только списки хеш-сумм.
Убедительная просьба с жалобами обращаться напрямую к пользователю, разместившему торрент файл.

Вверх